<?xml version="1.0" encoding="UTF-8"?>
<svg xmlns="http://www.w3.org/2000/svg" xmlns:xlink="http://www.w3.org/1999/xlink" version="1.2" >
<font id="Meltow San 300 Regular">
<font-face  font-family="Meltow San 300" units-per-em="1000" ascent="750" descent="-250" font-style="normal" font-weight="400" font-stretch="normal" cap-height="568" x-height="405" underline-position="-91" underline-thickness="35" />
<missing-glyph  horiz-adv-x="574" d="M544 0 L544 623 L30 623 L30 0 L544 0 Z M119 41 L119 89 L73 89 L71 42 L119 41 Z M455 579 L455 534 L500 534 L500 579 L455 579 Z M499 89 L455 89 L455 43 L502 43 L499 89 Z M74 534 L119 534 L119 581 L73 582 L74 534 Z M119 534 L455 534 L455 89 L119 89 L119 534 Z " />
<glyph glyph-name="space" unicode="&#x20;" horiz-adv-x="225" d="" />
<glyph glyph-name="exclam" unicode="&#x21;" horiz-adv-x="458" d="M185 568 C170 568 159 556 159 541 L159 210 C159 197 170 184 185 184 L281 184 C298 184 306 197 306 210 L306 541 C306 556 298 568 281 568 L185 568 Z M150 69 C150 25 185 -10 229 -10 C273 -10 308 25 308 69 C308 113 273 148 229 148 C185 148 150 113 150 69 L150 69 Z " />
<glyph glyph-name="quotedbl" unicode="&#x22;" horiz-adv-x="617" d="M171 568 C160 568 150 558 150 547 L150 375 C150 364 160 355 171 355 L247 355 C262 355 267 364 267 375 L267 547 C267 558 262 568 247 568 L171 568 Z M371 568 C360 568 350 558 350 547 L350 375 C350 364 360 355 371 355 L447 355 C462 355 467 364 467 375 L467 547 C467 558 462 568 447 568 L371 568 Z " />
<glyph glyph-name="numbersign" unicode="&#x23;" horiz-adv-x="776" d="M335 29 C335 10 346 0 358 0 L451 0 C468 0 482 12 487 25 L513 107 L638 107 C651 107 665 116 665 133 L665 220 C665 235 651 247 638 247 L557 247 L582 325 L669 325 C682 325 696 334 696 351 L696 438 C696 453 682 465 669 465 L627 465 L651 539 C651 558 640 568 628 568 L535 568 C518 568 504 556 499 543 L474 465 L396 465 L420 539 C420 558 409 568 397 568 L304 568 C287 568 273 556 268 543 L243 465 L137 465 C124 465 111 453 111 438 L111 351 C111 334 124 325 137 325 L198 325 L173 247 L106 247 C93 247 80 235 80 220 L80 133 C80 116 93 107 106 107 L129 107 L104 29 C104 10 115 0 127 0 L220 0 C237 0 251 12 256 25 L282 107 L360 107 L335 29 Z M351 325 L429 325 L404 247 L326 247 L351 325 Z " />
<glyph glyph-name="dollar" unicode="&#x24;" horiz-adv-x="573" d="M329 690 L241 690 C228 690 217 678 217 665 L217 574 C116 559 55 501 55 410 C55 213 371 237 371 156 C371 120 327 117 290 117 L282 117 C249 118 213 128 204 163 C200 178 191 190 174 190 L83 190 C68 190 57 179 57 164 C57 69 121 14 217 -3 L217 -99 C217 -111 228 -123 241 -123 L329 -123 C344 -123 352 -111 352 -99 L352 -5 C451 11 518 63 518 163 C518 346 202 341 202 412 C202 435 223 451 266 451 C311 451 346 446 357 410 C361 395 370 383 387 383 L478 383 C493 383 504 394 504 409 C504 498 441 550 352 569 L352 665 C352 678 344 690 329 690 L329 690 Z " />
<glyph glyph-name="percent" unicode="&#x25;" horiz-adv-x="843" d="M253 29 C253 10 264 0 276 0 L369 0 C386 0 400 12 405 25 L594 539 C594 558 583 568 571 568 L478 568 C461 568 447 556 442 543 L253 29 Z M197 578 C124 578 70 518 70 445 C70 372 124 312 197 312 C270 312 323 372 323 445 C323 518 270 578 197 578 L197 578 Z M197 409 C178 409 167 426 167 445 C167 464 178 481 197 481 C216 481 226 464 226 445 C226 426 216 409 197 409 L197 409 Z M646 256 C573 256 520 196 520 123 C520 50 573 -10 646 -10 C719 -10 773 50 773 123 C773 196 719 256 646 256 L646 256 Z M646 87 C627 87 617 104 617 123 C617 142 627 159 646 159 C665 159 676 142 676 123 C676 104 665 87 646 87 L646 87 Z " />
<glyph glyph-name="ampersand" unicode="&#x26;" horiz-adv-x="820" d="M330 114 C307 114 267 123 267 168 C267 192 288 215 307 226 L382 147 C367 119 345 114 330 114 L330 114 Z M510 15 C521 4 525 0 544 0 L679 0 C691 0 700 9 700 24 L567 166 L648 258 C652 265 653 271 653 275 C653 282 650 287 647 291 C624 314 611 328 603 336 L592 347 C589 350 585 351 581 351 C580 351 579 351 572 348 L482 256 C397 341 353 380 353 404 C353 425 355 443 400 443 C429 443 460 434 480 423 C483 421 487 420 492 420 C500 420 509 427 512 434 L544 505 C545 508 546 511 546 516 C543 527 538 531 534 534 C505 551 450 578 381 578 C236 578 184 505 184 425 C184 398 189 367 212 326 C136 284 120 210 120 167 C120 51 219 -10 322 -10 C341 -10 419 -10 467 59 L510 15 Z " />
<glyph glyph-name="quotesingle" unicode="&#x27;" horiz-adv-x="417" d="M247 568 L171 568 C160 568 150 558 150 547 L150 375 C150 364 160 355 171 355 L247 355 C262 355 267 364 267 375 L267 547 C267 558 262 568 247 568 L247 568 Z " />
<glyph glyph-name="parenleft" unicode="&#x28;" horiz-adv-x="500" d="M350 -170 C315 -17 297 135 297 286 C297 434 314 579 350 727 C350 742 342 754 325 754 L229 754 C214 754 207 739 203 727 C167 579 150 434 150 286 C150 135 168 -17 203 -170 C207 -183 214 -196 229 -196 L325 -196 C342 -196 350 -183 350 -170 L350 -170 Z " />
<glyph glyph-name="parenright" unicode="&#x29;" horiz-adv-x="500" d="M150 -170 C150 -183 158 -196 175 -196 L271 -196 C286 -196 293 -183 297 -170 C332 -17 350 135 350 286 C350 434 333 579 297 727 C293 739 286 754 271 754 L175 754 C158 754 150 742 150 727 C186 579 203 434 203 286 C203 135 185 -17 150 -170 L150 -170 Z " />
<glyph glyph-name="asterisk" unicode="&#x2a;" horiz-adv-x="542" d="M460 448 L429 504 C425 511 419 515 411 515 C408 515 405 514 402 513 L323 470 L323 559 C323 570 314 578 303 578 L239 578 C228 578 219 570 219 559 L219 470 L140 513 C137 514 135 515 133 515 C123 515 116 511 113 504 L82 448 C81 446 80 443 80 438 C81 429 85 424 91 422 L178 374 L119 294 C116 290 115 286 115 283 C115 280 115 277 116 275 L122 267 L174 229 C178 227 182 226 187 226 C191 226 194 226 195 227 C197 228 200 230 203 233 L268 322 C267 322 268 323 271 324 C274 323 275 322 274 322 L339 233 C342 230 345 228 347 227 C348 226 351 226 354 226 C359 226 364 227 368 229 L419 267 C421 268 423 271 426 275 C427 276 427 279 427 282 C427 287 426 291 423 294 L364 374 L451 422 C457 424 461 429 462 438 C462 443 461 446 460 448 L460 448 Z " />
<glyph glyph-name="plus" unicode="&#x2b;" horiz-adv-x="584" d="M362 416 C362 429 353 443 336 443 L249 443 C234 443 222 429 222 416 L222 322 L126 322 C113 322 100 310 100 295 L100 208 C100 191 113 182 126 182 L222 182 L222 85 C222 72 234 59 249 59 L336 59 C353 59 362 72 362 85 L362 182 L457 182 C470 182 484 191 484 208 L484 295 C484 310 470 322 457 322 L362 322 L362 416 Z " />
<glyph glyph-name="comma" unicode="&#x2c;" horiz-adv-x="377" d="M257 135 L161 135 C150 135 140 125 140 114 L100 -58 C100 -69 110 -78 121 -78 L191 -78 C206 -78 212 -69 215 -58 L277 114 C277 125 272 135 257 135 L257 135 Z " />
<glyph glyph-name="hyphen" unicode="&#x2d;" horiz-adv-x="530" d="M403 190 C416 190 430 199 430 216 L430 303 C430 318 416 330 403 330 L126 330 C113 330 100 318 100 303 L100 216 C100 199 113 190 126 190 L403 190 Z " />
<glyph glyph-name="period" unicode="&#x2e;" horiz-adv-x="358" d="M100 69 C100 25 135 -10 179 -10 C223 -10 258 25 258 69 C258 113 223 148 179 148 C135 148 100 113 100 69 L100 69 Z " />
<glyph glyph-name="slash" unicode="&#x2f;" horiz-adv-x="781" d="M150 -168 C150 -187 161 -197 173 -197 L266 -197 C283 -197 297 -185 302 -172 L631 725 C631 744 620 754 608 754 L515 754 C498 754 484 742 479 729 L150 -168 Z " />
<glyph glyph-name="zero" unicode="0" horiz-adv-x="600" d="M300 -10 C471 -10 550 110 550 280 C550 451 471 578 300 578 C129 578 50 451 50 280 C50 110 129 -10 300 -10 L300 -10 Z M300 124 C213 124 197 192 197 280 C197 367 213 444 300 444 C387 444 403 367 403 280 C403 192 387 124 300 124 L300 124 Z " />
<glyph glyph-name="one" unicode="1" horiz-adv-x="406" d="M281 568 L149 568 C134 568 124 553 117 541 L40 419 C40 406 51 393 66 393 L159 393 L159 26 C159 13 170 0 185 0 L281 0 C298 0 306 13 306 26 L306 541 C306 556 298 568 281 568 L281 568 Z " />
<glyph glyph-name="two" unicode="2" horiz-adv-x="554" d="M80 26 C80 13 91 0 106 0 L453 0 C466 0 480 9 480 26 L480 113 C480 128 466 140 453 140 L227 140 L227 150 C247 221 494 217 494 404 C494 508 422 578 291 578 C158 578 81 526 81 409 C81 394 99 382 114 382 L196 382 C213 382 228 395 228 410 C228 445 263 451 291 451 C334 451 347 429 347 406 C347 335 80 331 80 148 L80 26 Z " />
<glyph glyph-name="three" unicode="3" horiz-adv-x="538" d="M247 338 C236 338 227 328 227 317 L227 250 C227 237 236 230 247 230 L259 230 C310 230 321 208 321 171 C321 138 310 117 259 117 C208 117 197 138 197 171 C197 184 189 197 172 197 L76 197 C63 197 50 184 50 171 C50 67 88 -10 259 -10 C429 -10 468 67 468 171 C468 218 451 261 406 284 C447 300 468 350 468 397 C468 501 429 578 259 578 C88 578 50 501 50 397 C50 384 63 371 76 371 L172 371 C189 371 197 384 197 397 C197 430 208 451 259 451 C310 451 321 430 321 397 C321 360 310 338 259 338 L247 338 Z " />
<glyph glyph-name="four" unicode="4" horiz-adv-x="554" d="M290 568 C282 568 275 564 269 556 L57 295 C49 284 40 271 40 256 L40 162 C40 145 53 136 66 136 L287 136 L287 26 C287 13 300 0 313 0 L409 0 C426 0 434 13 434 26 L434 136 L487 136 C500 136 514 145 514 162 L514 235 C514 250 500 262 487 262 L434 262 L434 541 C434 556 420 568 407 568 L290 568 Z M287 375 L287 262 L194 262 L287 375 Z " />
<glyph glyph-name="five" unicode="5" horiz-adv-x="567" d="M232 224 C251 240 281 240 298 240 C349 240 360 208 360 171 C360 138 349 117 298 117 C266 117 248 122 241 141 C238 151 230 156 218 156 L119 156 C106 156 93 143 93 130 C101 49 150 -10 298 -10 C468 -10 507 67 507 171 C507 276 459 361 335 361 C292 358 266 353 243 334 L243 428 L435 428 C448 428 462 437 462 454 L462 541 C462 556 448 568 435 568 L122 568 C109 568 96 556 96 541 L96 236 C96 223 105 216 116 216 L214 216 C222 216 228 219 232 224 L232 224 Z " />
<glyph glyph-name="six" unicode="6" horiz-adv-x="548" d="M279 -10 C449 -10 488 66 488 170 C488 274 443 362 307 362 C284 362 234 354 217 334 L217 382 C217 419 228 451 279 451 C306 451 322 440 331 427 C336 420 343 416 352 416 L448 416 C463 416 474 428 474 443 C458 515 410 578 279 578 C108 578 70 486 70 382 L70 170 C70 66 108 -10 279 -10 L279 -10 Z M279 230 C330 230 341 199 341 170 C341 142 330 117 279 117 C228 117 217 143 217 170 C217 199 228 230 279 230 L279 230 Z " />
<glyph glyph-name="seven" unicode="7" horiz-adv-x="484" d="M407 568 L66 568 C53 568 40 556 40 541 L40 454 C40 437 53 428 66 428 L274 428 L112 26 C112 13 125 0 138 0 L242 0 C259 0 268 14 272 26 L434 431 L434 541 C434 556 420 568 407 568 L407 568 Z " />
<glyph glyph-name="eight" unicode="8" horiz-adv-x="558" d="M279 578 C108 578 70 501 70 397 C70 350 91 300 132 284 C87 261 70 218 70 171 C70 67 108 -10 279 -10 C449 -10 488 67 488 171 C488 218 471 261 426 284 C467 300 488 350 488 397 C488 501 449 578 279 578 L279 578 Z M279 338 C228 338 217 360 217 397 C217 430 228 451 279 451 C330 451 341 430 341 397 C341 360 330 338 279 338 L279 338 Z M279 117 C228 117 217 138 217 171 C217 208 228 230 279 230 C330 230 341 208 341 171 C341 138 330 117 279 117 L279 117 Z " />
<glyph glyph-name="nine" unicode="9" horiz-adv-x="548" d="M269 578 C98 578 60 486 60 382 C60 278 105 186 241 186 C263 186 315 193 331 214 L331 186 C331 149 320 117 269 117 C242 117 226 128 217 141 C212 148 205 152 196 152 L100 152 C85 152 74 140 74 125 C90 53 138 -10 269 -10 C439 -10 478 82 478 186 L478 382 C478 486 439 578 269 578 L269 578 Z M269 313 C218 313 207 345 207 382 C207 419 218 451 269 451 C320 451 331 419 331 382 C331 345 320 313 269 313 L269 313 Z " />
<glyph glyph-name="colon" unicode="&#x3a;" horiz-adv-x="358" d="M100 107 C100 63 135 28 179 28 C223 28 258 63 258 107 C258 151 223 186 179 186 C135 186 100 151 100 107 L100 107 Z M100 397 C100 353 135 318 179 318 C223 318 258 353 258 397 C258 441 223 476 179 476 C135 476 100 441 100 397 L100 397 Z " />
<glyph glyph-name="semicolon" unicode="&#x3b;" horiz-adv-x="385" d="M127 397 C127 353 162 318 206 318 C250 318 285 353 285 397 C285 441 250 476 206 476 C162 476 127 441 127 397 L127 397 Z M161 135 C150 135 140 125 140 114 L100 -58 C100 -69 110 -78 121 -78 L191 -78 C206 -78 212 -69 215 -58 L277 114 C277 125 272 135 257 135 L161 135 Z " />
<glyph glyph-name="less" unicode="&#x3c;" horiz-adv-x="533" d="M266 25 C274 13 285 0 302 0 L410 0 C422 0 433 10 433 29 L267 277 L433 526 C433 545 422 555 410 555 L302 555 C285 555 271 543 266 530 L100 282 L100 273 L266 25 Z " />
<glyph glyph-name="equal" unicode="&#x3d;" horiz-adv-x="530" d="M403 236 C416 236 430 245 430 262 L430 349 C430 364 416 376 403 376 L126 376 C113 376 100 364 100 349 L100 262 C100 245 113 236 126 236 L403 236 Z M403 47 C416 47 430 56 430 73 L430 160 C430 175 416 187 403 187 L126 187 C113 187 100 175 100 160 L100 73 C100 56 113 47 126 47 L403 47 Z " />
<glyph glyph-name="greater" unicode="&#x3e;" horiz-adv-x="533" d="M433 273 L433 282 L267 530 C262 543 248 555 231 555 L123 555 C111 555 100 545 100 526 L266 277 L100 29 C100 10 111 0 123 0 L231 0 C248 0 259 13 267 25 L433 273 Z " />
<glyph glyph-name="question" unicode="&#x3f;" horiz-adv-x="613" d="M184 177 C184 164 197 151 210 151 L306 151 C323 151 331 164 331 177 L331 207 C406 239 513 291 513 404 C513 508 441 578 310 578 C177 578 100 526 100 409 C100 394 118 382 133 382 L215 382 C232 382 247 395 247 410 C247 445 282 451 310 451 C353 451 366 429 366 406 C366 366 276 333 201 290 C192 286 184 277 184 266 L184 177 Z M184 38 C184 -6 219 -41 263 -41 C307 -41 342 -6 342 38 C342 82 307 117 263 117 C219 117 184 82 184 38 L184 38 Z " />
<glyph glyph-name="at" unicode="&#x40;" horiz-adv-x="829" d="M353 632 C182 632 100 523 100 391 L100 92 C100 -40 182 -149 353 -149 L588 -149 C600 -149 612 -141 612 -125 L612 -46 C612 -34 600 -22 588 -22 L353 -22 C281 -22 247 19 247 111 L247 372 C247 464 281 505 353 505 L475 505 C526 505 582 463 582 426 L582 388 C565 408 515 416 492 416 C356 416 311 328 311 224 C311 120 349 44 520 44 C690 44 729 120 729 224 L729 426 C729 530 645 632 475 632 L353 632 Z M520 171 C469 171 458 196 458 224 C458 253 469 284 520 284 C571 284 582 253 582 224 C582 197 571 171 520 171 L520 171 Z " />
<glyph glyph-name="A" unicode="A" horiz-adv-x="592" d="M396 541 C392 554 385 568 364 568 L228 568 C207 568 200 554 196 541 L45 26 C45 13 53 0 68 0 L157 0 C176 0 185 14 189 26 L204 71 L388 71 L403 26 C407 14 416 0 435 0 L524 0 C539 0 547 13 547 26 L396 541 Z M244 206 L296 381 L348 206 L244 206 Z " />
<glyph glyph-name="B" unicode="B" horiz-adv-x="596" d="M546 395 C546 487 478 568 338 568 L126 568 C111 568 100 556 100 541 L100 26 C100 13 111 0 126 0 L338 0 C509 0 546 79 546 160 C546 196 539 254 476 272 C533 312 546 355 546 395 L546 395 Z M340 221 C391 221 399 193 399 172 C399 151 389 125 340 125 L247 125 L247 221 L340 221 Z M247 341 L247 441 L340 441 C389 441 399 414 399 393 L399 385 C399 364 389 341 340 341 L247 341 Z " />
<glyph glyph-name="C" unicode="C" horiz-adv-x="584" d="M307 451 C354 451 397 431 428 380 C433 371 442 367 453 367 C458 367 462 368 466 370 L531 403 C540 408 544 416 544 427 C544 432 543 436 541 440 C500 525 420 578 307 578 C137 578 40 451 40 280 C40 110 137 -10 307 -10 C420 -10 500 43 541 128 C543 132 544 136 544 141 C544 152 540 160 531 165 L466 198 C462 200 458 201 453 201 C442 201 433 197 428 188 C397 137 354 117 307 117 C220 117 187 192 187 280 C187 367 220 451 307 451 L307 451 Z " />
<glyph glyph-name="D" unicode="D" horiz-adv-x="618" d="M126 568 C111 568 100 556 100 541 L100 26 C100 13 111 0 126 0 L310 0 C480 0 568 115 568 280 C568 446 480 568 310 568 L126 568 Z M247 134 L247 434 L310 434 C397 434 421 363 421 280 C421 196 397 134 310 134 L247 134 Z " />
<glyph glyph-name="E" unicode="E" horiz-adv-x="584" d="M126 568 C111 568 100 555 100 542 L100 26 C100 13 111 0 126 0 L487 0 C500 0 514 9 514 26 L514 113 C514 128 500 140 487 140 L247 140 L247 219 L417 219 C430 219 444 228 444 245 L444 323 C444 338 430 350 417 350 L247 350 L247 428 L487 428 C500 428 514 440 514 455 L514 542 C514 559 500 568 487 568 L126 568 Z " />
<glyph glyph-name="F" unicode="F" horiz-adv-x="547" d="M247 187 L432 187 C445 187 459 196 459 213 L459 291 C459 306 445 318 432 318 L247 318 L247 428 L490 428 C503 428 517 440 517 455 L517 542 C517 559 503 568 490 568 L126 568 C111 568 100 555 100 542 L100 26 C100 13 111 0 126 0 L221 0 C236 0 247 13 247 26 L247 187 Z " />
<glyph glyph-name="G" unicode="G" horiz-adv-x="626" d="M360 333 C347 333 333 321 333 306 L333 241 C333 224 347 215 360 215 L423 215 L423 173 C388 133 342 117 307 117 C220 117 187 192 187 280 C187 367 220 451 307 451 C354 451 392 448 422 397 C427 388 436 384 447 384 C452 384 456 385 460 387 L525 420 C534 425 538 433 538 444 C538 449 537 453 535 457 C494 542 420 578 307 578 C137 578 40 451 40 280 C40 110 137 -10 307 -10 C347 -10 395 6 432 38 L437 26 C441 14 448 0 463 0 L530 0 C545 0 556 13 556 26 L556 307 C556 320 545 333 530 333 L360 333 Z " />
<glyph glyph-name="H" unicode="H" horiz-adv-x="652" d="M527 568 L431 568 C416 568 405 556 405 541 L405 337 L247 337 L247 541 C247 556 239 568 222 568 L126 568 C111 568 100 556 100 541 L100 27 C100 14 111 1 126 1 L222 1 C239 1 247 14 247 27 L247 202 L405 202 L405 27 C405 14 416 1 431 1 L527 1 C544 1 552 14 552 27 L552 541 C552 556 544 568 527 568 L527 568 Z " />
<glyph glyph-name="I" unicode="I" horiz-adv-x="347" d="M222 568 L126 568 C111 568 100 556 100 541 L100 26 C100 13 111 0 126 0 L222 0 C239 0 247 13 247 26 L247 541 C247 556 239 568 222 568 L222 568 Z " />
<glyph glyph-name="J" unicode="J" horiz-adv-x="577" d="M350 428 L350 280 C350 192 344 117 264 117 C219 117 198 140 187 176 C183 191 174 203 157 203 L66 203 C51 203 40 192 40 177 C40 61 132 -10 264 -10 C434 -10 497 110 497 280 L497 541 C497 556 489 568 472 568 L232 568 C219 568 206 556 206 541 L206 454 C206 437 219 428 232 428 L350 428 Z " />
<glyph glyph-name="K" unicode="K" horiz-adv-x="636" d="M541 568 L443 568 C422 568 407 553 399 541 L247 345 L247 541 C247 556 239 568 222 568 L126 568 C111 568 100 556 100 541 L100 26 C100 13 111 0 126 0 L222 0 C239 0 247 13 247 26 L247 125 L339 245 L437 26 C442 14 456 0 471 0 L570 0 C585 0 596 10 596 21 C596 23 596 25 595 26 L439 376 L566 541 C566 556 558 568 541 568 L541 568 Z " />
<glyph glyph-name="L" unicode="L" horiz-adv-x="533" d="M456 0 C469 0 483 9 483 26 L483 113 C483 128 469 140 456 140 L247 140 L247 541 C247 556 239 568 222 568 L126 568 C111 568 100 556 100 541 L100 26 C100 13 111 0 126 0 L456 0 Z " />
<glyph glyph-name="M" unicode="M" horiz-adv-x="768" d="M392 106 C401 106 408 110 413 117 L521 286 L521 26 C521 13 529 0 546 0 L642 0 C655 0 668 13 668 26 L668 541 C668 556 655 568 642 568 L550 568 C542 568 529 564 525 555 C522 552 515 541 504 524 C485 495 449 440 384 335 C317 440 283 495 264 524 C253 541 246 552 243 555 C239 564 226 568 218 568 L126 568 C113 568 100 556 100 541 L100 26 C100 13 113 0 126 0 L222 0 C239 0 247 13 247 26 L247 286 L355 117 C360 110 367 106 376 106 L392 106 Z " />
<glyph glyph-name="N" unicode="N" horiz-adv-x="661" d="M535 568 L440 568 C423 568 414 556 414 541 L414 285 C330 420 288 486 266 521 C253 541 246 552 243 555 C239 564 226 568 218 568 L126 568 C113 568 100 556 100 541 L100 26 C100 13 113 0 126 0 L222 0 C239 0 247 13 247 26 L247 286 L420 13 C427 2 437 0 445 0 L535 0 C548 0 561 13 561 26 L561 541 C561 556 548 568 535 568 L535 568 Z " />
<glyph glyph-name="O" unicode="O" horiz-adv-x="633" d="M317 -10 C488 -10 583 110 583 280 C583 451 488 578 317 578 C147 578 50 451 50 280 C50 110 147 -10 317 -10 L317 -10 Z M317 124 C230 124 197 192 197 280 C197 367 230 444 317 444 C404 444 436 367 436 280 C436 192 404 124 317 124 L317 124 Z " />
<glyph glyph-name="P" unicode="P" horiz-adv-x="576" d="M126 568 C117 568 110 564 105 558 C102 553 100 547 100 541 L100 26 C100 20 103 14 107 9 C112 4 118 0 126 0 L222 0 C230 0 237 3 241 8 C245 13 247 19 247 26 L247 133 L300 133 C471 133 546 238 546 347 L546 355 C546 464 471 568 300 568 L126 568 Z M300 434 C388 434 399 395 399 355 L399 347 C399 307 388 267 300 267 L247 267 L247 434 L300 434 Z " />
<glyph glyph-name="Q" unicode="Q" horiz-adv-x="633" d="M317 -10 C339 -10 360 -8 379 -4 L429 -98 C433 -107 442 -112 453 -112 C457 -112 461 -111 464 -109 L527 -74 C538 -69 540 -61 540 -53 C540 -48 539 -44 537 -40 L490 48 C550 100 583 180 583 280 C583 451 488 578 317 578 C147 578 50 451 50 280 C50 110 147 -10 317 -10 L317 -10 Z M317 124 C230 124 197 192 197 280 C197 367 230 444 317 444 C404 444 436 367 436 280 C436 192 404 124 317 124 L317 124 Z " />
<glyph glyph-name="R" unicode="R" horiz-adv-x="596" d="M126 568 C117 568 109 563 104 556 C101 552 100 547 100 541 L100 26 C100 21 102 16 105 12 C110 5 117 0 126 0 L222 0 C231 0 238 4 242 10 C245 15 247 20 247 26 L247 133 L318 133 L369 26 C372 21 375 16 378 12 C383 5 390 0 399 0 L492 0 C499 0 506 4 511 9 C515 14 518 20 518 26 L450 170 C515 210 546 276 546 347 L546 355 C546 464 471 568 300 568 L126 568 Z M300 434 C388 434 399 395 399 355 L399 347 C399 307 388 267 300 267 L247 267 L247 434 L300 434 Z " />
<glyph glyph-name="S" unicode="S" horiz-adv-x="573" d="M376 156 C376 120 332 117 295 117 C260 117 220 127 209 163 C205 178 196 190 179 190 L88 190 C73 190 62 179 62 164 C62 48 162 -10 295 -10 C425 -10 523 46 523 163 C523 346 207 341 207 412 C207 435 228 451 271 451 C316 451 351 446 362 410 C366 395 375 383 392 383 L483 383 C498 383 509 394 509 409 C509 525 404 578 271 578 C140 578 60 514 60 410 C60 213 376 237 376 156 L376 156 Z " />
<glyph glyph-name="T" unicode="T" horiz-adv-x="526" d="M454 568 L71 568 C58 568 45 556 45 541 L45 454 C45 437 58 428 71 428 L189 428 L189 26 C189 13 202 0 215 0 L311 0 C328 0 336 13 336 26 L336 428 L454 428 C467 428 481 437 481 454 L481 541 C481 556 467 568 454 568 L454 568 Z " />
<glyph glyph-name="U" unicode="U" horiz-adv-x="640" d="M320 -10 C489 -10 560 86 560 253 L560 541 C560 556 549 568 534 568 L438 568 C421 568 413 556 413 541 L413 253 C413 170 399 117 320 117 C241 117 227 170 227 253 L227 541 C227 556 219 568 202 568 L106 568 C91 568 80 556 80 541 L80 253 C80 87 149 -10 320 -10 L320 -10 Z " />
<glyph glyph-name="V" unicode="V" horiz-adv-x="592" d="M547 542 C547 555 539 568 524 568 L430 568 C411 568 402 554 398 542 L296 155 L194 542 C190 554 181 568 162 568 L68 568 C53 568 45 555 45 542 L192 42 C195 29 211 0 249 0 L344 0 C384 0 396 29 401 42 L547 542 Z " />
<glyph glyph-name="W" unicode="W" horiz-adv-x="834" d="M378 568 C359 568 349 554 346 542 L262 203 L194 542 C191 554 181 568 162 568 L73 568 C58 568 50 555 50 542 L160 27 C164 14 171 0 192 0 L328 0 C349 0 356 14 360 27 L417 294 L474 27 C478 14 485 0 506 0 L642 0 C663 0 670 14 674 27 L784 542 C784 555 776 568 761 568 L672 568 C653 568 643 554 640 542 L572 203 L488 542 C485 554 475 568 456 568 L378 568 Z " />
<glyph glyph-name="X" unicode="X" horiz-adv-x="596" d="M424 568 C409 568 398 561 389 548 L298 408 L207 548 C198 561 187 568 172 568 L75 568 C58 568 50 556 50 541 L217 283 L50 26 C50 13 61 0 76 0 L176 0 C193 0 206 15 213 26 L298 157 L383 26 C390 15 403 0 420 0 L520 0 C535 0 546 13 546 26 L379 283 L546 541 C546 556 538 568 521 568 L424 568 Z " />
<glyph glyph-name="Y" unicode="Y" horiz-adv-x="523" d="M262 361 L168 544 C157 567 144 568 125 568 L33 568 C18 568 10 555 10 542 L188 182 L188 26 C188 13 199 0 214 0 L310 0 C327 0 335 13 335 26 L335 182 L513 542 C513 555 505 568 490 568 L398 568 C379 568 366 567 355 544 L262 361 Z " />
<glyph glyph-name="Z" unicode="Z" horiz-adv-x="576" d="M70 113 L70 26 C70 9 83 0 96 0 L479 0 C492 0 506 9 506 26 L506 113 C506 128 492 140 479 140 L264 140 L503 440 C505 445 506 449 506 454 L506 541 C506 556 492 568 479 568 L96 568 C83 568 70 556 70 541 L70 454 C70 437 83 428 96 428 L314 428 L81 135 C74 129 70 122 70 113 L70 113 Z " />
<glyph glyph-name="bracketleft" unicode="&#x5b;" horiz-adv-x="564" d="M437 -195 C450 -195 464 -186 464 -169 L464 -82 C464 -67 450 -55 437 -55 L297 -55 L297 614 L437 614 C450 614 464 623 464 640 L464 727 C464 742 450 754 437 754 L176 754 C161 754 150 742 150 727 L150 -170 C150 -183 161 -196 176 -196 L272 -196 C276 -196 279 -196 280 -195 L437 -195 Z " />
<glyph glyph-name="backslash" unicode="&#x5c;" horiz-adv-x="781" d="M302 729 C297 742 283 754 266 754 L173 754 C161 754 150 744 150 725 L479 -172 C484 -185 498 -197 515 -197 L608 -197 C620 -197 631 -187 631 -168 L302 729 Z " />
<glyph glyph-name="bracketright" unicode="&#x5d;" horiz-adv-x="564" d="M284 -195 C285 -196 288 -196 292 -196 L388 -196 C403 -196 414 -183 414 -170 L414 727 C414 742 403 754 388 754 L127 754 C114 754 100 742 100 727 L100 640 C100 623 114 614 127 614 L267 614 L267 -55 L127 -55 C114 -55 100 -67 100 -82 L100 -169 C100 -186 114 -195 127 -195 L284 -195 Z " />
<glyph glyph-name="asciicircum" unicode="&#x5e;" horiz-adv-x="526" d="M213 578 C196 578 181 564 176 551 L100 400 C100 387 108 374 125 374 L196 374 C211 374 227 388 232 400 L263 467 L294 400 C299 388 315 374 330 374 L401 374 C418 374 426 387 426 400 L350 551 C345 564 330 578 313 578 L213 578 Z " />
<glyph glyph-name="underscore" unicode="&#x5f;" horiz-adv-x="530" d="M403 -151 C416 -151 430 -142 430 -125 L430 -38 C430 -23 416 -11 403 -11 L126 -11 C113 -11 100 -23 100 -38 L100 -125 C100 -142 113 -151 126 -151 L403 -151 Z " />
<glyph glyph-name="grave" unicode="&#x60;" horiz-adv-x="388" d="M126 578 C111 578 100 566 100 551 L144 437 C149 425 167 411 182 411 L263 411 C280 411 288 424 288 437 L244 551 C239 564 228 578 211 578 L126 578 Z " />
<glyph glyph-name="a" unicode="a" horiz-adv-x="592" d="M396 541 C392 554 385 568 364 568 L228 568 C207 568 200 554 196 541 L45 26 C45 13 53 0 68 0 L157 0 C176 0 185 14 189 26 L204 71 L388 71 L403 26 C407 14 416 0 435 0 L524 0 C539 0 547 13 547 26 L396 541 Z M244 206 L296 381 L348 206 L244 206 Z " />
<glyph glyph-name="b" unicode="b" horiz-adv-x="596" d="M546 395 C546 487 478 568 338 568 L126 568 C111 568 100 556 100 541 L100 26 C100 13 111 0 126 0 L338 0 C509 0 546 79 546 160 C546 196 539 254 476 272 C533 312 546 355 546 395 L546 395 Z M340 221 C391 221 399 193 399 172 C399 151 389 125 340 125 L247 125 L247 221 L340 221 Z M247 341 L247 441 L340 441 C389 441 399 414 399 393 L399 385 C399 364 389 341 340 341 L247 341 Z " />
<glyph glyph-name="c" unicode="c" horiz-adv-x="584" d="M307 451 C354 451 397 431 428 380 C433 371 442 367 453 367 C458 367 462 368 466 370 L531 403 C540 408 544 416 544 427 C544 432 543 436 541 440 C500 525 420 578 307 578 C137 578 40 451 40 280 C40 110 137 -10 307 -10 C420 -10 500 43 541 128 C543 132 544 136 544 141 C544 152 540 160 531 165 L466 198 C462 200 458 201 453 201 C442 201 433 197 428 188 C397 137 354 117 307 117 C220 117 187 192 187 280 C187 367 220 451 307 451 L307 451 Z " />
<glyph glyph-name="d" unicode="d" horiz-adv-x="618" d="M126 568 C111 568 100 556 100 541 L100 26 C100 13 111 0 126 0 L310 0 C480 0 568 115 568 280 C568 446 480 568 310 568 L126 568 Z M247 134 L247 434 L310 434 C397 434 421 363 421 280 C421 196 397 134 310 134 L247 134 Z " />
<glyph glyph-name="e" unicode="e" horiz-adv-x="584" d="M126 568 C111 568 100 555 100 542 L100 26 C100 13 111 0 126 0 L487 0 C500 0 514 9 514 26 L514 113 C514 128 500 140 487 140 L247 140 L247 219 L417 219 C430 219 444 228 444 245 L444 323 C444 338 430 350 417 350 L247 350 L247 428 L487 428 C500 428 514 440 514 455 L514 542 C514 559 500 568 487 568 L126 568 Z " />
<glyph glyph-name="f" unicode="f" horiz-adv-x="547" d="M247 187 L432 187 C445 187 459 196 459 213 L459 291 C459 306 445 318 432 318 L247 318 L247 428 L490 428 C503 428 517 440 517 455 L517 542 C517 559 503 568 490 568 L126 568 C111 568 100 555 100 542 L100 26 C100 13 111 0 126 0 L221 0 C236 0 247 13 247 26 L247 187 Z " />
<glyph glyph-name="g" unicode="g" horiz-adv-x="626" d="M360 333 C347 333 333 321 333 306 L333 241 C333 224 347 215 360 215 L423 215 L423 173 C388 133 342 117 307 117 C220 117 187 192 187 280 C187 367 220 451 307 451 C354 451 392 448 422 397 C427 388 436 384 447 384 C452 384 456 385 460 387 L525 420 C534 425 538 433 538 444 C538 449 537 453 535 457 C494 542 420 578 307 578 C137 578 40 451 40 280 C40 110 137 -10 307 -10 C347 -10 395 6 432 38 L437 26 C441 14 448 0 463 0 L530 0 C545 0 556 13 556 26 L556 307 C556 320 545 333 530 333 L360 333 Z " />
<glyph glyph-name="h" unicode="h" horiz-adv-x="652" d="M527 568 L431 568 C416 568 405 556 405 541 L405 337 L247 337 L247 541 C247 556 239 568 222 568 L126 568 C111 568 100 556 100 541 L100 27 C100 14 111 1 126 1 L222 1 C239 1 247 14 247 27 L247 202 L405 202 L405 27 C405 14 416 1 431 1 L527 1 C544 1 552 14 552 27 L552 541 C552 556 544 568 527 568 L527 568 Z " />
<glyph glyph-name="i" unicode="i" horiz-adv-x="347" d="M222 568 L126 568 C111 568 100 556 100 541 L100 26 C100 13 111 0 126 0 L222 0 C239 0 247 13 247 26 L247 541 C247 556 239 568 222 568 L222 568 Z " />
<glyph glyph-name="j" unicode="j" horiz-adv-x="577" d="M350 428 L350 280 C350 192 344 117 264 117 C219 117 198 140 187 176 C183 191 174 203 157 203 L66 203 C51 203 40 192 40 177 C40 61 132 -10 264 -10 C434 -10 497 110 497 280 L497 541 C497 556 489 568 472 568 L232 568 C219 568 206 556 206 541 L206 454 C206 437 219 428 232 428 L350 428 Z " />
<glyph glyph-name="k" unicode="k" horiz-adv-x="636" d="M541 568 L443 568 C422 568 407 553 399 541 L247 345 L247 541 C247 556 239 568 222 568 L126 568 C111 568 100 556 100 541 L100 26 C100 13 111 0 126 0 L222 0 C239 0 247 13 247 26 L247 125 L339 245 L437 26 C442 14 456 0 471 0 L570 0 C585 0 596 10 596 21 C596 23 596 25 595 26 L439 376 L566 541 C566 556 558 568 541 568 L541 568 Z " />
<glyph glyph-name="l" unicode="l" horiz-adv-x="533" d="M456 0 C469 0 483 9 483 26 L483 113 C483 128 469 140 456 140 L247 140 L247 541 C247 556 239 568 222 568 L126 568 C111 568 100 556 100 541 L100 26 C100 13 111 0 126 0 L456 0 Z " />
<glyph glyph-name="m" unicode="m" horiz-adv-x="768" d="M392 106 C401 106 408 110 413 117 L521 286 L521 26 C521 13 529 0 546 0 L642 0 C655 0 668 13 668 26 L668 541 C668 556 655 568 642 568 L550 568 C542 568 529 564 525 555 C522 552 515 541 504 524 C485 495 449 440 384 335 C317 440 283 495 264 524 C253 541 246 552 243 555 C239 564 226 568 218 568 L126 568 C113 568 100 556 100 541 L100 26 C100 13 113 0 126 0 L222 0 C239 0 247 13 247 26 L247 286 L355 117 C360 110 367 106 376 106 L392 106 Z " />
<glyph glyph-name="n" unicode="n" horiz-adv-x="661" d="M535 568 L440 568 C423 568 414 556 414 541 L414 285 C330 420 288 486 266 521 C253 541 246 552 243 555 C239 564 226 568 218 568 L126 568 C113 568 100 556 100 541 L100 26 C100 13 113 0 126 0 L222 0 C239 0 247 13 247 26 L247 286 L420 13 C427 2 437 0 445 0 L535 0 C548 0 561 13 561 26 L561 541 C561 556 548 568 535 568 L535 568 Z " />
<glyph glyph-name="o" unicode="o" horiz-adv-x="633" d="M317 -10 C488 -10 583 110 583 280 C583 451 488 578 317 578 C147 578 50 451 50 280 C50 110 147 -10 317 -10 L317 -10 Z M317 124 C230 124 197 192 197 280 C197 367 230 444 317 444 C404 444 436 367 436 280 C436 192 404 124 317 124 L317 124 Z " />
<glyph glyph-name="p" unicode="p" horiz-adv-x="576" d="M126 568 C117 568 110 564 105 558 C102 553 100 547 100 541 L100 26 C100 20 103 14 107 9 C112 4 118 0 126 0 L222 0 C230 0 237 3 241 8 C245 13 247 19 247 26 L247 133 L300 133 C471 133 546 238 546 347 L546 355 C546 464 471 568 300 568 L126 568 Z M300 434 C388 434 399 395 399 355 L399 347 C399 307 388 267 300 267 L247 267 L247 434 L300 434 Z " />
<glyph glyph-name="q" unicode="q" horiz-adv-x="633" d="M317 -10 C339 -10 360 -8 379 -4 L429 -98 C433 -107 442 -112 453 -112 C457 -112 461 -111 464 -109 L527 -74 C538 -69 540 -61 540 -53 C540 -48 539 -44 537 -40 L490 48 C550 100 583 180 583 280 C583 451 488 578 317 578 C147 578 50 451 50 280 C50 110 147 -10 317 -10 L317 -10 Z M317 124 C230 124 197 192 197 280 C197 367 230 444 317 444 C404 444 436 367 436 280 C436 192 404 124 317 124 L317 124 Z " />
<glyph glyph-name="r" unicode="r" horiz-adv-x="596" d="M126 568 C117 568 109 563 104 556 C101 552 100 547 100 541 L100 26 C100 21 102 16 105 12 C110 5 117 0 126 0 L222 0 C231 0 238 4 242 10 C245 15 247 20 247 26 L247 133 L318 133 L369 26 C372 21 375 16 378 12 C383 5 390 0 399 0 L492 0 C499 0 506 4 511 9 C515 14 518 20 518 26 L450 170 C515 210 546 276 546 347 L546 355 C546 464 471 568 300 568 L126 568 Z M300 434 C388 434 399 395 399 355 L399 347 C399 307 388 267 300 267 L247 267 L247 434 L300 434 Z " />
<glyph glyph-name="s" unicode="s" horiz-adv-x="573" d="M376 156 C376 120 332 117 295 117 C260 117 220 127 209 163 C205 178 196 190 179 190 L88 190 C73 190 62 179 62 164 C62 48 162 -10 295 -10 C425 -10 523 46 523 163 C523 346 207 341 207 412 C207 435 228 451 271 451 C316 451 351 446 362 410 C366 395 375 383 392 383 L483 383 C498 383 509 394 509 409 C509 525 404 578 271 578 C140 578 60 514 60 410 C60 213 376 237 376 156 L376 156 Z " />
<glyph glyph-name="t" unicode="t" horiz-adv-x="526" d="M454 568 L71 568 C58 568 45 556 45 541 L45 454 C45 437 58 428 71 428 L189 428 L189 26 C189 13 202 0 215 0 L311 0 C328 0 336 13 336 26 L336 428 L454 428 C467 428 481 437 481 454 L481 541 C481 556 467 568 454 568 L454 568 Z " />
<glyph glyph-name="u" unicode="u" horiz-adv-x="640" d="M320 -10 C489 -10 560 86 560 253 L560 541 C560 556 549 568 534 568 L438 568 C421 568 413 556 413 541 L413 253 C413 170 399 117 320 117 C241 117 227 170 227 253 L227 541 C227 556 219 568 202 568 L106 568 C91 568 80 556 80 541 L80 253 C80 87 149 -10 320 -10 L320 -10 Z " />
<glyph glyph-name="v" unicode="v" horiz-adv-x="592" d="M547 542 C547 555 539 568 524 568 L430 568 C411 568 402 554 398 542 L296 155 L194 542 C190 554 181 568 162 568 L68 568 C53 568 45 555 45 542 L192 42 C195 29 211 0 249 0 L344 0 C384 0 396 29 401 42 L547 542 Z " />
<glyph glyph-name="w" unicode="w" horiz-adv-x="834" d="M378 568 C359 568 349 554 346 542 L262 203 L194 542 C191 554 181 568 162 568 L73 568 C58 568 50 555 50 542 L160 27 C164 14 171 0 192 0 L328 0 C349 0 356 14 360 27 L417 294 L474 27 C478 14 485 0 506 0 L642 0 C663 0 670 14 674 27 L784 542 C784 555 776 568 761 568 L672 568 C653 568 643 554 640 542 L572 203 L488 542 C485 554 475 568 456 568 L378 568 Z " />
<glyph glyph-name="x" unicode="x" horiz-adv-x="596" d="M424 568 C409 568 398 561 389 548 L298 408 L207 548 C198 561 187 568 172 568 L75 568 C58 568 50 556 50 541 L217 283 L50 26 C50 13 61 0 76 0 L176 0 C193 0 206 15 213 26 L298 157 L383 26 C390 15 403 0 420 0 L520 0 C535 0 546 13 546 26 L379 283 L546 541 C546 556 538 568 521 568 L424 568 Z " />
<glyph glyph-name="y" unicode="y" horiz-adv-x="523" d="M262 361 L168 544 C157 567 144 568 125 568 L33 568 C18 568 10 555 10 542 L188 182 L188 26 C188 13 199 0 214 0 L310 0 C327 0 335 13 335 26 L335 182 L513 542 C513 555 505 568 490 568 L398 568 C379 568 366 567 355 544 L262 361 Z " />
<glyph glyph-name="z" unicode="z" horiz-adv-x="576" d="M70 113 L70 26 C70 9 83 0 96 0 L479 0 C492 0 506 9 506 26 L506 113 C506 128 492 140 479 140 L264 140 L503 440 C505 445 506 449 506 454 L506 541 C506 556 492 568 479 568 L96 568 C83 568 70 556 70 541 L70 454 C70 437 83 428 96 428 L314 428 L81 135 C74 129 70 122 70 113 L70 113 Z " />
<glyph glyph-name="braceleft" unicode="&#x7b;" horiz-adv-x="536" d="M161 18 C161 -91 236 -195 406 -195 L429 -195 C442 -195 456 -183 456 -168 L456 -81 C456 -64 442 -55 429 -55 L406 -55 C318 -55 307 -16 307 24 L307 160 C307 196 300 254 237 272 C300 290 307 347 307 384 L307 535 C307 575 318 614 406 614 L429 614 C442 614 456 623 456 640 L456 727 C456 742 442 754 429 754 L406 754 C236 754 161 650 161 541 L161 385 C161 365 153 329 102 329 C91 329 80 318 80 307 L80 237 C80 222 91 215 102 215 C153 215 161 179 161 159 L161 18 Z " />
<glyph glyph-name="bar" unicode="&#x7c;" horiz-adv-x="447" d="M272 754 L176 754 C161 754 150 742 150 727 L150 -170 C150 -183 161 -196 176 -196 L272 -196 C289 -196 297 -183 297 -170 L297 727 C297 742 289 754 272 754 L272 754 Z " />
<glyph glyph-name="braceright" unicode="&#x7d;" horiz-adv-x="536" d="M375 159 C375 179 383 215 434 215 C445 215 456 222 456 237 L456 307 C456 318 445 329 434 329 C383 329 375 365 375 385 L375 541 C375 650 300 754 130 754 L107 754 C94 754 80 742 80 727 L80 640 C80 623 94 614 107 614 L130 614 C218 614 229 575 229 535 L229 384 C229 347 236 290 299 272 C236 254 229 196 229 160 L229 24 C229 -16 218 -55 130 -55 L107 -55 C94 -55 80 -64 80 -81 L80 -168 C80 -183 94 -195 107 -195 L130 -195 C300 -195 375 -91 375 18 L375 159 Z " />
<glyph glyph-name="asciitilde" unicode="&#x7e;" horiz-adv-x="559" d="M459 237 L429 317 C424 322 417 329 406 329 C403 329 402 329 395 325 C376 312 362 306 339 306 C299 306 266 345 212 345 C173 345 142 327 111 303 C104 298 100 291 100 283 C100 279 101 275 102 270 L130 198 C135 190 142 186 151 186 C155 186 157 185 164 188 C180 201 192 205 212 205 C258 205 292 166 337 166 C378 166 416 185 447 212 C454 215 459 226 459 237 L459 237 Z " />
<glyph glyph-name="uni00A0" unicode="&#xa0;" horiz-adv-x="224" d="" />
<glyph glyph-name="exclamdown" unicode="&#xa1;" horiz-adv-x="458" d="M281 -10 C298 -10 306 2 306 17 L306 348 C306 361 298 374 281 374 L185 374 C170 374 159 361 159 348 L159 17 C159 2 170 -10 185 -10 L281 -10 Z M150 489 C150 445 185 410 229 410 C273 410 308 445 308 489 C308 533 273 568 229 568 C185 568 150 533 150 489 L150 489 Z " />
<glyph glyph-name="cent" unicode="&#xa2;" horiz-adv-x="704" d="M409 690 L321 690 C308 690 297 678 297 665 L297 570 C170 538 100 426 100 280 C100 136 170 24 297 -2 L297 -99 C297 -111 308 -123 321 -123 L409 -123 C424 -123 432 -111 432 -99 L432 -4 C512 12 568 60 601 128 C603 132 604 136 604 141 C604 152 600 160 591 165 L526 198 C522 200 518 201 513 201 C502 201 493 197 488 188 C457 137 414 117 367 117 C280 117 247 192 247 280 C247 367 280 451 367 451 L374 451 C418 448 459 428 488 380 C493 371 502 367 513 367 C518 367 522 368 526 370 L591 403 C600 408 604 416 604 427 C604 432 603 436 601 440 C568 508 512 555 432 572 L432 665 C432 678 424 690 409 690 L409 690 Z " />
<glyph glyph-name="sterling" unicode="&#xa3;" horiz-adv-x="631" d="M378 578 C226 578 153 487 153 328 L72 328 C61 328 50 317 50 305 L50 232 C50 217 61 210 72 210 L151 210 L151 140 L79 140 C66 140 52 128 52 113 L52 26 C52 9 66 0 79 0 L524 0 C537 0 551 9 551 26 L551 113 C551 128 537 140 524 140 L298 140 L298 210 L417 210 C428 210 440 217 440 232 L440 305 C440 317 428 328 417 328 L299 328 C299 407 315 451 378 451 C423 451 433 428 444 392 C448 377 457 365 474 365 L565 365 C580 365 591 376 591 391 C591 508 511 578 378 578 L378 578 Z " />
<glyph glyph-name="currency" unicode="&#xa4;" horiz-adv-x="628" d="M510 264 C510 307 504 348 481 380 L528 509 C528 520 523 528 511 528 L447 528 C436 528 432 518 429 509 L402 436 C378 444 349 448 314 448 C279 448 250 444 226 436 L199 509 C196 518 192 528 181 528 L117 528 C105 528 100 520 100 509 L147 380 C124 348 118 307 118 264 C118 221 124 180 147 148 L100 19 C100 8 105 0 117 0 L181 0 C192 0 196 10 199 19 L226 92 C250 84 279 80 314 80 C349 80 378 84 402 92 L429 19 C432 10 436 0 447 0 L511 0 C523 0 528 8 528 19 L481 148 C504 180 510 221 510 264 L510 264 Z M386 264 C386 220 373 183 315 183 C255 183 242 220 242 264 C242 308 255 345 315 345 C373 345 386 308 386 264 L386 264 Z " />
<glyph glyph-name="yen" unicode="&#xa5;" horiz-adv-x="523" d="M435 80 C448 80 462 89 462 106 L462 159 C462 174 448 186 435 186 L337 186 L353 218 L435 218 C448 218 462 227 462 244 L462 297 C462 312 448 324 435 324 L405 324 L513 542 C513 555 505 568 490 568 L398 568 C379 568 366 567 355 544 L262 361 L168 544 C157 567 144 568 125 568 L33 568 C18 568 10 555 10 542 L117 324 L88 324 C75 324 62 312 62 297 L62 244 C62 227 75 218 88 218 L170 218 L186 186 L88 186 C75 186 62 174 62 159 L62 106 C62 89 75 80 88 80 L188 80 L188 26 C188 13 199 0 214 0 L310 0 C327 0 335 13 335 26 L335 80 L435 80 Z " />
<glyph glyph-name="brokenbar" unicode="&#xa6;" horiz-adv-x="447" d="M176 754 C161 754 150 742 150 727 L150 399 C150 386 161 373 176 373 L272 373 C289 373 297 386 297 399 L297 727 C297 742 289 754 272 754 L176 754 Z M176 184 C161 184 150 172 150 157 L150 -171 C150 -184 161 -197 176 -197 L272 -197 C289 -197 297 -184 297 -171 L297 157 C297 172 289 184 272 184 L176 184 Z " />
<glyph glyph-name="section" unicode="&#xa7;" horiz-adv-x="588" d="M386 -42 C386 -78 342 -81 305 -81 C270 -81 230 -71 219 -35 C215 -20 206 -8 189 -8 L98 -8 C83 -8 72 -19 72 -34 C72 -150 172 -208 305 -208 C435 -208 533 -152 533 -35 C533 22 501 62 458 90 C493 117 514 154 517 202 C518 206 519 209 519 211 C519 275 487 320 435 347 C343 405 202 419 202 466 C202 489 223 505 266 505 C311 505 346 500 357 464 C361 449 370 437 387 437 L478 437 C493 437 504 448 504 463 C504 579 399 632 266 632 C135 632 55 568 55 464 C55 403 84 364 127 335 C89 305 70 264 70 212 C70 15 386 39 386 -42 L386 -42 Z M371 210 C371 174 327 171 290 171 C259 171 217 185 217 214 C217 237 238 253 281 253 C322 253 355 248 368 221 C370 217 371 213 371 210 L371 210 Z " />
<glyph glyph-name="dieresis" unicode="&#xa8;" horiz-adv-x="545" d="M100 504 C100 463 133 430 174 430 C215 430 248 463 248 504 C248 545 215 578 174 578 C133 578 100 545 100 504 L100 504 Z M297 504 C297 463 330 430 371 430 C412 430 445 463 445 504 C445 545 412 578 371 578 C330 578 297 545 297 504 L297 504 Z " />
<glyph glyph-name="copyright" unicode="&#xa9;" horiz-adv-x="788" d="M394 578 C231 578 100 447 100 284 C100 121 231 -10 394 -10 C557 -10 688 121 688 284 C688 447 557 578 394 578 L394 578 Z M394 75 C279 75 185 169 185 284 C185 399 279 493 394 493 C509 493 603 399 603 284 C603 169 509 75 394 75 L394 75 Z M390 355 C414 355 436 350 451 325 C454 320 458 318 463 318 C465 318 467 319 470 320 L503 339 C507 343 509 347 509 352 C509 355 509 357 508 358 C487 401 447 427 390 427 C306 427 257 362 257 278 C257 193 305 133 390 133 C447 133 487 159 508 202 C509 203 509 205 509 208 C509 213 507 217 503 221 L470 240 C467 241 465 242 463 242 C458 242 454 240 451 235 C436 208 414 203 390 203 C347 203 335 234 335 278 C335 321 347 355 390 355 L390 355 Z " />
<glyph glyph-name="ordfeminine" unicode="&#xaa;" horiz-adv-x="398" d="M203 453 C110 453 80 423 80 371 C80 319 106 278 199 278 C292 278 318 321 318 373 L318 478 C318 530 289 578 196 578 C103 578 80 532 80 480 C80 473 86 467 93 467 L159 467 C168 467 172 473 172 480 C172 488 179 494 199 494 C222 494 225 484 225 475 C225 460 218 453 203 453 L203 453 Z M199 387 C216 387 225 385 225 370 C225 361 222 351 199 351 C176 351 173 361 173 370 C173 377 176 387 199 387 L199 387 Z " />
<glyph glyph-name="guillemotleft" unicode="&#xab;" horiz-adv-x="846" d="M266 25 C274 13 285 0 302 0 L410 0 C422 0 433 10 433 29 L267 277 L433 526 C433 545 422 555 410 555 L302 555 C285 555 271 543 266 530 L100 282 L100 273 L266 25 Z M579 25 C587 13 598 0 615 0 L723 0 C735 0 746 10 746 29 L580 277 L746 526 C746 545 735 555 723 555 L615 555 C598 555 584 543 579 530 L413 282 L413 273 L579 25 Z " />
<glyph glyph-name="logicalnot" unicode="&#xac;" horiz-adv-x="683" d="M177 297 C164 297 150 288 150 271 L150 184 C150 169 164 157 177 157 L386 157 L386 63 C386 48 394 36 411 36 L507 36 C522 36 533 48 533 63 L533 271 C533 284 522 297 507 297 L177 297 Z " />
<glyph glyph-name="uni00AD" unicode="&#xad;" horiz-adv-x="224" d="" />
<glyph glyph-name="registered" unicode="&#xae;" horiz-adv-x="788" d="M394 578 C231 578 100 447 100 284 C100 121 231 -10 394 -10 C557 -10 688 121 688 284 C688 447 557 578 394 578 L394 578 Z M394 75 C279 75 185 169 185 284 C185 399 279 493 394 493 C509 493 603 399 603 284 C603 169 509 75 394 75 L394 75 Z M301 431 C293 431 287 424 287 417 L287 150 C287 143 293 136 301 136 L352 136 C361 136 365 143 365 150 L365 205 L398 205 L425 150 C428 143 433 136 440 136 L493 136 C500 136 506 143 506 150 L471 224 C506 245 521 280 521 316 L521 320 C521 379 481 431 393 431 L301 431 Z M393 359 C438 359 444 341 444 320 L444 316 C444 295 438 275 393 275 L365 275 L365 359 L393 359 Z " />
<glyph glyph-name="macron" unicode="&#xaf;" horiz-adv-x="530" d="M403 438 C416 438 430 447 430 464 L430 551 C430 566 416 578 403 578 L126 578 C113 578 100 566 100 551 L100 464 C100 447 113 438 126 438 L403 438 Z " />
<glyph glyph-name="degree" unicode="&#xb0;" horiz-adv-x="466" d="M233 578 C160 578 100 518 100 445 C100 372 160 312 233 312 C306 312 366 372 366 445 C366 518 306 578 233 578 L233 578 Z M233 409 C214 409 197 426 197 445 C197 464 214 481 233 481 C252 481 269 464 269 445 C269 426 252 409 233 409 L233 409 Z " />
<glyph glyph-name="plusminus" unicode="&#xb1;" horiz-adv-x="584" d="M362 530 C362 543 353 557 336 557 L249 557 C234 557 222 543 222 530 L222 436 L126 436 C113 436 100 424 100 409 L100 322 C100 305 113 296 126 296 L222 296 L222 199 C222 186 234 173 249 173 L336 173 C353 173 362 186 362 199 L362 296 L457 296 C470 296 484 305 484 322 L484 409 C484 424 470 436 457 436 L362 436 L362 530 Z M457 -10 C470 -10 484 -1 484 16 L484 103 C484 118 470 130 457 130 L126 130 C113 130 100 118 100 103 L100 16 C100 -1 113 -10 126 -10 L457 -10 Z " />
<glyph glyph-name="twosuperior" unicode="&#xb2;" horiz-adv-x="402" d="M90 286 C90 279 94 274 101 274 L310 274 C317 274 322 278 322 286 L322 345 C322 352 317 357 310 357 L215 357 L215 361 C225 384 322 390 322 466 C322 522 289 578 201 578 C102 578 80 532 80 476 C80 461 87 457 94 457 L158 457 C165 457 172 462 172 469 C172 484 182 485 194 485 C211 485 216 476 216 467 C216 437 90 427 90 352 L90 286 Z " />
<glyph glyph-name="threesuperior" unicode="&#xb3;" horiz-adv-x="398" d="M287 428 C312 439 318 461 318 478 C318 530 289 578 196 578 C103 578 80 520 80 468 C80 461 86 455 93 455 L159 455 C168 455 172 461 172 468 C172 476 172 494 199 494 C222 494 225 484 225 475 C225 460 218 458 203 458 L197 458 C190 458 187 454 187 447 L187 410 C187 403 192 398 197 398 L203 398 C218 398 225 396 225 381 C225 372 222 362 199 362 C172 362 172 380 172 388 C172 395 168 401 159 401 L93 401 C86 401 80 395 80 388 C80 336 106 278 199 278 C292 278 318 326 318 378 C318 395 311 424 287 428 L287 428 Z " />
<glyph glyph-name="acute" unicode="&#xb4;" horiz-adv-x="388" d="M177 578 C160 578 149 564 144 551 L100 437 C100 424 108 411 125 411 L206 411 C221 411 239 425 244 437 L288 551 C288 566 277 578 262 578 L177 578 Z " />
<glyph glyph-name="mu" unicode="&#xb5;" horiz-adv-x="640" d="M320 -10 C489 -10 560 86 560 253 L560 541 C560 556 549 568 534 568 L438 568 C421 568 413 556 413 541 L413 253 C413 170 399 117 320 117 C245 117 227 165 227 241 L227 541 C227 556 219 568 202 568 L106 568 C91 568 80 556 80 541 L80 -145 C80 -158 91 -171 106 -171 L202 -171 C219 -171 227 -158 227 -145 L227 2 C254 -5 284 -10 320 -10 L320 -10 Z " />
<glyph glyph-name="paragraph" unicode="&#xb6;" horiz-adv-x="822" d="M695 568 L282 568 C156 568 100 493 100 410 L100 404 C100 323 155 245 280 245 L280 26 C280 13 293 0 306 0 L402 0 C419 0 427 13 427 26 L427 428 L575 428 L575 26 C575 13 588 0 601 0 L697 0 C714 0 722 13 722 26 L722 541 C722 556 708 568 695 568 L695 568 Z " />
<glyph glyph-name="periodcentered" unicode="&#xb7;" horiz-adv-x="358" d="M100 238 C100 194 135 159 179 159 C223 159 258 194 258 238 C258 282 223 317 179 317 C135 317 100 282 100 238 L100 238 Z " />
<glyph glyph-name="cedilla" unicode="&#xb8;" horiz-adv-x="396" d="M241 -18 C241 -9 236 0 224 0 L172 0 C161 0 154 -9 154 -18 L149 -63 C149 -76 160 -89 175 -89 L191 -90 C206 -92 213 -99 213 -112 C213 -120 208 -129 192 -129 C164 -129 142 -111 135 -110 C127 -110 124 -112 121 -115 L103 -146 C101 -150 100 -153 100 -156 C100 -161 102 -163 105 -166 C138 -193 164 -200 203 -200 C248 -200 296 -172 296 -118 C296 -82 280 -53 239 -41 L241 -18 Z " />
<glyph glyph-name="onesuperior" unicode="&#xb9;" horiz-adv-x="328" d="M235 568 L136 568 C129 568 123 561 120 554 L80 489 C80 482 86 475 93 475 L142 475 L142 287 C142 280 148 274 155 274 L235 274 C244 274 248 280 248 287 L248 554 C248 561 244 568 235 568 L235 568 Z " />
<glyph glyph-name="ordmasculine" unicode="&#xba;" horiz-adv-x="466" d="M233 578 C160 578 100 518 100 445 C100 372 160 312 233 312 C306 312 366 372 366 445 C366 518 306 578 233 578 L233 578 Z M233 409 C214 409 197 426 197 445 C197 464 214 481 233 481 C252 481 269 464 269 445 C269 426 252 409 233 409 L233 409 Z " />
<glyph glyph-name="guillemotright" unicode="&#xbb;" horiz-adv-x="846" d="M746 273 L746 282 L580 530 C575 543 561 555 544 555 L436 555 C424 555 413 545 413 526 L579 277 L413 29 C413 10 424 0 436 0 L544 0 C561 0 572 13 580 25 L746 273 Z M433 273 L433 282 L267 530 C262 543 248 555 231 555 L123 555 C111 555 100 545 100 526 L266 277 L100 29 C100 10 111 0 123 0 L231 0 C248 0 259 13 267 25 L433 273 Z " />
<glyph glyph-name="onequarter" unicode="&#xbc;" horiz-adv-x="845" d="M240 19 C240 0 251 -10 263 -10 L324 -10 C341 -10 355 2 360 15 L556 549 C556 568 545 578 533 578 L472 578 C455 578 441 566 436 553 L240 19 Z M136 568 C129 568 123 561 120 554 L80 489 C80 482 86 475 93 475 L142 475 L142 287 C142 280 148 274 155 274 L235 274 C244 274 248 280 248 287 L248 554 C248 561 244 568 235 568 L136 568 Z M611 294 C606 294 603 292 600 288 L485 147 C481 140 476 133 476 126 L476 62 C476 53 483 48 490 48 L616 48 L616 14 C616 7 623 0 630 0 L709 0 C720 0 722 7 722 14 L722 48 L750 48 C758 48 765 53 765 62 L765 114 C765 122 758 130 750 130 L722 130 L722 279 C722 286 715 294 707 294 L611 294 Z M629 190 L629 130 L579 130 L629 190 Z " />
<glyph glyph-name="onehalf" unicode="&#xbd;" horiz-adv-x="820" d="M240 19 C240 0 251 -10 263 -10 L324 -10 C341 -10 355 2 360 15 L556 549 C556 568 545 578 533 578 L472 578 C455 578 441 566 436 553 L240 19 Z M136 568 C129 568 123 561 120 554 L80 489 C80 482 86 475 93 475 L142 475 L142 287 C142 280 148 274 155 274 L235 274 C244 274 248 280 248 287 L248 554 C248 561 244 568 235 568 L136 568 Z M508 12 C508 5 512 0 519 0 L728 0 C735 0 740 4 740 12 L740 71 C740 78 735 83 728 83 L633 83 L633 87 C643 110 740 116 740 192 C740 248 707 304 619 304 C520 304 498 258 498 202 C498 187 505 183 512 183 L576 183 C583 183 590 188 590 195 C590 210 600 211 612 211 C629 211 634 202 634 193 C634 163 508 153 508 78 L508 12 Z " />
<glyph glyph-name="threequarters" unicode="&#xbe;" horiz-adv-x="881" d="M276 19 C276 0 287 -10 299 -10 L360 -10 C377 -10 391 2 396 15 L592 549 C592 568 581 578 569 578 L508 578 C491 578 477 566 472 553 L276 19 Z M647 294 C642 294 639 292 636 288 L521 147 C517 140 512 133 512 126 L512 62 C512 53 519 48 526 48 L652 48 L652 14 C652 7 659 0 666 0 L745 0 C756 0 758 7 758 14 L758 48 L786 48 C794 48 801 53 801 62 L801 114 C801 122 794 130 786 130 L758 130 L758 279 C758 286 751 294 743 294 L647 294 Z M665 190 L665 130 L615 130 L665 190 Z M287 428 C312 439 318 461 318 478 C318 530 289 578 196 578 C103 578 80 520 80 468 C80 461 86 455 93 455 L159 455 C168 455 172 461 172 468 C172 476 172 494 199 494 C222 494 225 484 225 475 C225 460 218 458 203 458 L197 458 C190 458 187 454 187 447 L187 410 C187 403 192 398 197 398 L203 398 C218 398 225 396 225 381 C225 372 222 362 199 362 C172 362 172 380 172 388 C172 395 168 401 159 401 L93 401 C86 401 80 395 80 388 C80 336 106 278 199 278 C292 278 318 326 318 378 C318 395 311 424 287 428 L287 428 Z " />
<glyph glyph-name="questiondown" unicode="&#xbf;" horiz-adv-x="613" d="M429 360 C429 373 416 386 403 386 L307 386 C290 386 282 373 282 360 L282 330 C205 298 100 246 100 133 C100 29 172 -41 303 -41 C436 -41 513 11 513 128 C513 143 495 155 480 155 L398 155 C381 155 366 142 366 127 C366 92 331 86 303 86 C260 86 247 108 247 131 C247 171 337 204 412 247 C421 251 429 260 429 271 L429 360 Z M429 499 C429 543 394 578 350 578 C306 578 271 543 271 499 C271 455 306 420 350 420 C394 420 429 455 429 499 L429 499 Z " />
<glyph glyph-name="Agrave" unicode="&#xc0;" horiz-adv-x="592" d="M396 541 C392 554 385 568 364 568 L228 568 C207 568 200 554 196 541 L45 26 C45 13 53 0 68 0 L157 0 C176 0 185 14 189 26 L204 71 L388 71 L403 26 C407 14 416 0 435 0 L524 0 C539 0 547 13 547 26 L396 541 Z M244 206 L296 381 L348 206 L244 206 Z M191 799 C176 799 165 787 165 772 L209 658 C214 646 232 632 247 632 L328 632 C345 632 353 645 353 658 L309 772 C304 785 293 799 276 799 L191 799 Z " />
<glyph glyph-name="Aacute" unicode="&#xc1;" horiz-adv-x="592" d="M396 541 C392 554 385 568 364 568 L228 568 C207 568 200 554 196 541 L45 26 C45 13 53 0 68 0 L157 0 C176 0 185 14 189 26 L204 71 L388 71 L403 26 C407 14 416 0 435 0 L524 0 C539 0 547 13 547 26 L396 541 Z M244 206 L296 381 L348 206 L244 206 Z M311 799 C294 799 283 785 278 772 L234 658 C234 645 242 632 259 632 L340 632 C355 632 373 646 378 658 L422 772 C422 787 411 799 396 799 L311 799 Z " />
<glyph glyph-name="Acircumflex" unicode="&#xc2;" horiz-adv-x="592" d="M396 541 C392 554 385 568 364 568 L228 568 C207 568 200 554 196 541 L45 26 C45 13 53 0 68 0 L157 0 C176 0 185 14 189 26 L204 71 L388 71 L403 26 C407 14 416 0 435 0 L524 0 C539 0 547 13 547 26 L396 541 Z M244 206 L296 381 L348 206 L244 206 Z M246 836 C229 836 214 822 209 809 L133 658 C133 645 141 632 158 632 L229 632 C244 632 260 646 265 658 L296 725 L327 658 C332 646 348 632 363 632 L434 632 C451 632 459 645 459 658 L383 809 C378 822 363 836 346 836 L246 836 Z " />
<glyph glyph-name="Atilde" unicode="&#xc3;" horiz-adv-x="592" d="M446 783 C441 788 434 795 423 795 C420 795 419 795 412 791 C393 778 379 772 356 772 C316 772 283 811 229 811 C190 811 159 793 128 769 C121 764 117 757 117 749 C117 745 118 741 119 736 L147 664 C152 656 159 652 168 652 C172 652 174 651 181 654 C197 667 209 671 229 671 C275 671 309 632 354 632 C395 632 433 651 464 678 C471 681 476 692 476 703 L446 783 Z M396 541 C392 554 385 568 364 568 L228 568 C207 568 200 554 196 541 L45 26 C45 13 53 0 68 0 L157 0 C176 0 185 14 189 26 L204 71 L388 71 L403 26 C407 14 416 0 435 0 L524 0 C539 0 547 13 547 26 L396 541 Z M244 206 L296 381 L348 206 L244 206 Z " />
<glyph glyph-name="Adieresis" unicode="&#xc4;" horiz-adv-x="592" d="M396 541 C392 554 385 568 364 568 L228 568 C207 568 200 554 196 541 L45 26 C45 13 53 0 68 0 L157 0 C176 0 185 14 189 26 L204 71 L388 71 L403 26 C407 14 416 0 435 0 L524 0 C539 0 547 13 547 26 L396 541 Z M244 206 L296 381 L348 206 L244 206 Z M122 706 C122 665 155 632 196 632 C237 632 270 665 270 706 C270 747 237 780 196 780 C155 780 122 747 122 706 L122 706 Z M319 706 C319 665 352 632 393 632 C434 632 467 665 467 706 C467 747 434 780 393 780 C352 780 319 747 319 706 L319 706 Z " />
<glyph glyph-name="Aring" unicode="&#xc5;" horiz-adv-x="592" d="M396 541 C392 554 385 568 364 568 L228 568 C207 568 200 554 196 541 L45 26 C45 13 53 0 68 0 L157 0 C176 0 185 14 189 26 L204 71 L388 71 L403 26 C407 14 416 0 435 0 L524 0 C539 0 547 13 547 26 L396 541 Z M244 206 L296 381 L348 206 L244 206 Z M296 898 C223 898 163 838 163 765 C163 692 223 632 296 632 C369 632 429 692 429 765 C429 838 369 898 296 898 L296 898 Z M296 729 C277 729 260 746 260 765 C260 784 277 801 296 801 C315 801 332 784 332 765 C332 746 315 729 296 729 L296 729 Z " />
<glyph glyph-name="AE" unicode="&#xc6;" horiz-adv-x="833" d="M10 29 C10 10 21 0 33 0 L126 0 C143 0 157 12 162 25 L178 70 L349 70 L349 26 C349 13 360 0 375 0 L736 0 C749 0 763 9 763 26 L763 113 C763 128 749 140 736 140 L496 140 L496 219 L666 219 C679 219 693 228 693 245 L693 323 C693 338 679 350 666 350 L496 350 L496 428 L736 428 C749 428 763 440 763 455 L763 542 C763 559 749 568 736 568 L234 568 C217 568 203 556 198 543 L10 29 Z M309 428 L349 428 L349 210 L229 210 L309 428 Z " />
<glyph glyph-name="Ccedilla" unicode="&#xc7;" horiz-adv-x="584" d="M260 -63 C260 -76 271 -89 286 -89 L302 -90 C317 -92 324 -99 324 -112 C324 -120 319 -129 303 -129 C275 -129 253 -111 246 -110 C238 -110 235 -112 232 -115 L214 -146 C212 -150 211 -153 211 -156 C211 -161 213 -163 216 -166 C249 -193 275 -200 314 -200 C359 -200 407 -172 407 -118 C407 -82 391 -53 350 -41 C350 -40 351 -22 352 -7 C441 5 505 55 541 128 C543 132 544 136 544 141 C544 152 540 160 531 165 L466 198 C462 200 458 201 453 201 C442 201 433 197 428 188 C397 137 354 117 307 117 C220 117 187 192 187 280 C187 367 220 451 307 451 C354 451 397 431 428 380 C433 371 442 367 453 367 C458 367 462 368 466 370 L531 403 C540 408 544 416 544 427 C544 432 543 436 541 440 C500 525 420 578 307 578 C137 578 40 451 40 280 C40 124 121 9 266 -7 L260 -63 Z " />
<glyph glyph-name="Egrave" unicode="&#xc8;" horiz-adv-x="584" d="M126 568 C111 568 100 555 100 542 L100 26 C100 13 111 0 126 0 L487 0 C500 0 514 9 514 26 L514 113 C514 128 500 140 487 140 L247 140 L247 219 L417 219 C430 219 444 228 444 245 L444 323 C444 338 430 350 417 350 L247 350 L247 428 L487 428 C500 428 514 440 514 455 L514 542 C514 559 500 568 487 568 L126 568 Z M223 799 C208 799 197 787 197 772 L241 658 C246 646 264 632 279 632 L360 632 C377 632 385 645 385 658 L341 772 C336 785 325 799 308 799 L223 799 Z " />
<glyph glyph-name="Eacute" unicode="&#xc9;" horiz-adv-x="584" d="M126 568 C111 568 100 555 100 542 L100 26 C100 13 111 0 126 0 L487 0 C500 0 514 9 514 26 L514 113 C514 128 500 140 487 140 L247 140 L247 219 L417 219 C430 219 444 228 444 245 L444 323 C444 338 430 350 417 350 L247 350 L247 428 L487 428 C500 428 514 440 514 455 L514 542 C514 559 500 568 487 568 L126 568 Z M317 799 C300 799 289 785 284 772 L240 658 C240 645 248 632 265 632 L346 632 C361 632 379 646 384 658 L428 772 C428 787 417 799 402 799 L317 799 Z " />
<glyph glyph-name="Ecircumflex" unicode="&#xca;" horiz-adv-x="584" d="M126 568 C111 568 100 555 100 542 L100 26 C100 13 111 0 126 0 L487 0 C500 0 514 9 514 26 L514 113 C514 128 500 140 487 140 L247 140 L247 219 L417 219 C430 219 444 228 444 245 L444 323 C444 338 430 350 417 350 L247 350 L247 428 L487 428 C500 428 514 440 514 455 L514 542 C514 559 500 568 487 568 L126 568 Z M257 836 C240 836 225 822 220 809 L144 658 C144 645 152 632 169 632 L240 632 C255 632 271 646 276 658 L307 725 L338 658 C343 646 359 632 374 632 L445 632 C462 632 470 645 470 658 L394 809 C389 822 374 836 357 836 L257 836 Z " />
<glyph glyph-name="Edieresis" unicode="&#xcb;" horiz-adv-x="584" d="M126 568 C111 568 100 555 100 542 L100 26 C100 13 111 0 126 0 L487 0 C500 0 514 9 514 26 L514 113 C514 128 500 140 487 140 L247 140 L247 219 L417 219 C430 219 444 228 444 245 L444 323 C444 338 430 350 417 350 L247 350 L247 428 L487 428 C500 428 514 440 514 455 L514 542 C514 559 500 568 487 568 L126 568 Z M139 706 C139 665 172 632 213 632 C254 632 287 665 287 706 C287 747 254 780 213 780 C172 780 139 747 139 706 L139 706 Z M336 706 C336 665 369 632 410 632 C451 632 484 665 484 706 C484 747 451 780 410 780 C369 780 336 747 336 706 L336 706 Z " />
<glyph glyph-name="Igrave" unicode="&#xcc;" horiz-adv-x="347" d="M126 568 C111 568 100 556 100 541 L100 26 C100 13 111 0 126 0 L222 0 C239 0 247 13 247 26 L247 541 C247 556 239 568 222 568 L126 568 Z M77 799 C62 799 51 787 51 772 L95 658 C100 646 118 632 133 632 L214 632 C231 632 239 645 239 658 L195 772 C190 785 179 799 162 799 L77 799 Z " />
<glyph glyph-name="Iacute" unicode="&#xcd;" horiz-adv-x="347" d="M125 568 C108 568 100 556 100 541 L100 26 C100 13 108 0 125 0 L221 0 C236 0 247 13 247 26 L247 541 C247 556 236 568 221 568 L125 568 Z M185 799 C168 799 157 785 152 772 L108 658 C108 645 116 632 133 632 L214 632 C229 632 247 646 252 658 L296 772 C296 787 285 799 270 799 L185 799 Z " />
<glyph glyph-name="Icircumflex" unicode="&#xce;" horiz-adv-x="347" d="M125 568 C108 568 100 556 100 541 L100 26 C100 13 108 0 125 0 L221 0 C236 0 247 13 247 26 L247 541 C247 556 236 568 221 568 L125 568 Z M123 836 C106 836 91 822 86 809 L10 658 C10 645 18 632 35 632 L106 632 C121 632 137 646 142 658 L173 725 L204 658 C209 646 225 632 240 632 L311 632 C328 632 336 645 336 658 L260 809 C255 822 240 836 223 836 L123 836 Z " />
<glyph glyph-name="Idieresis" unicode="&#xcf;" horiz-adv-x="347" d="M125 568 C108 568 100 556 100 541 L100 26 C100 13 108 0 125 0 L221 0 C236 0 247 13 247 26 L247 541 C247 556 236 568 221 568 L125 568 Z M-2 706 C-2 665 31 632 72 632 C113 632 146 665 146 706 C146 747 113 780 72 780 C31 780 -2 747 -2 706 L-2 706 Z M203 706 C203 665 236 632 277 632 C318 632 351 665 351 706 C351 747 318 780 277 780 C236 780 203 747 203 706 L203 706 Z " />
<glyph glyph-name="Eth" unicode="&#xd0;" horiz-adv-x="638" d="M146 568 C131 568 120 556 120 541 L120 352 L76 352 C63 352 50 340 50 325 L50 238 C50 221 63 212 76 212 L120 212 L120 26 C120 13 131 0 146 0 L330 0 C500 0 588 115 588 280 C588 446 500 568 330 568 L146 568 Z M353 212 C366 212 380 221 380 238 L380 325 C380 340 366 352 353 352 L267 352 L267 434 L330 434 C417 434 441 363 441 280 C441 196 417 134 330 134 L267 134 L267 212 L353 212 Z " />
<glyph glyph-name="Ntilde" unicode="&#xd1;" horiz-adv-x="661" d="M440 568 C423 568 414 556 414 541 L414 285 C330 420 288 486 266 521 C253 541 246 552 243 555 C239 564 226 568 218 568 L126 568 C113 568 100 556 100 541 L100 26 C100 13 113 0 126 0 L222 0 C239 0 247 13 247 26 L247 286 L420 13 C427 2 437 0 445 0 L535 0 C548 0 561 13 561 26 L561 541 C561 556 548 568 535 568 L440 568 Z M466 783 C461 788 454 795 443 795 C440 795 439 795 432 791 C413 778 399 772 376 772 C336 772 303 811 249 811 C210 811 179 793 148 769 C141 764 137 757 137 749 C137 745 138 741 139 736 L167 664 C172 656 179 652 188 652 C192 652 194 651 201 654 C217 667 229 671 249 671 C295 671 329 632 374 632 C415 632 453 651 484 678 C491 681 496 692 496 703 L466 783 Z " />
<glyph glyph-name="Ograve" unicode="&#xd2;" horiz-adv-x="633" d="M317 -10 C488 -10 583 110 583 280 C583 451 488 578 317 578 C147 578 50 451 50 280 C50 110 147 -10 317 -10 L317 -10 Z M317 124 C230 124 197 192 197 280 C197 367 230 444 317 444 C404 444 436 367 436 280 C436 192 404 124 317 124 L317 124 Z M216 799 C201 799 190 787 190 772 L234 658 C239 646 257 632 272 632 L353 632 C370 632 378 645 378 658 L334 772 C329 785 318 799 301 799 L216 799 Z " />
<glyph glyph-name="Oacute" unicode="&#xd3;" horiz-adv-x="633" d="M317 -10 C488 -10 583 110 583 280 C583 451 488 578 317 578 C147 578 50 451 50 280 C50 110 147 -10 317 -10 L317 -10 Z M317 124 C230 124 197 192 197 280 C197 367 230 444 317 444 C404 444 436 367 436 280 C436 192 404 124 317 124 L317 124 Z M332 799 C315 799 304 785 299 772 L255 658 C255 645 263 632 280 632 L361 632 C376 632 394 646 399 658 L443 772 C443 787 432 799 417 799 L332 799 Z " />
<glyph glyph-name="Ocircumflex" unicode="&#xd4;" horiz-adv-x="633" d="M317 -10 C488 -10 583 110 583 280 C583 451 488 578 317 578 C147 578 50 451 50 280 C50 110 147 -10 317 -10 L317 -10 Z M317 124 C230 124 197 192 197 280 C197 367 230 444 317 444 C404 444 436 367 436 280 C436 192 404 124 317 124 L317 124 Z M268 836 C251 836 236 822 231 809 L155 658 C155 645 163 632 180 632 L251 632 C266 632 282 646 287 658 L318 725 L349 658 C354 646 370 632 385 632 L456 632 C473 632 481 645 481 658 L405 809 C400 822 385 836 368 836 L268 836 Z " />
<glyph glyph-name="Otilde" unicode="&#xd5;" horiz-adv-x="633" d="M317 -10 C488 -10 583 110 583 280 C583 451 488 578 317 578 C147 578 50 451 50 280 C50 110 147 -10 317 -10 L317 -10 Z M317 124 C230 124 197 192 197 280 C197 367 230 444 317 444 C404 444 436 367 436 280 C436 192 404 124 317 124 L317 124 Z M468 783 C463 788 456 795 445 795 C442 795 441 795 434 791 C415 778 401 772 378 772 C338 772 305 811 251 811 C212 811 181 793 150 769 C143 764 139 757 139 749 C139 745 140 741 141 736 L169 664 C174 656 181 652 190 652 C194 652 196 651 203 654 C219 667 231 671 251 671 C297 671 331 632 376 632 C417 632 455 651 486 678 C493 681 498 692 498 703 L468 783 Z " />
<glyph glyph-name="Odieresis" unicode="&#xd6;" horiz-adv-x="633" d="M317 -10 C488 -10 583 110 583 280 C583 451 488 578 317 578 C147 578 50 451 50 280 C50 110 147 -10 317 -10 L317 -10 Z M317 124 C230 124 197 192 197 280 C197 367 230 444 317 444 C404 444 436 367 436 280 C436 192 404 124 317 124 L317 124 Z M145 704 C145 663 178 630 219 630 C260 630 293 663 293 704 C293 745 260 778 219 778 C178 778 145 745 145 704 L145 704 Z M342 704 C342 663 375 630 416 630 C457 630 490 663 490 704 C490 745 457 778 416 778 C375 778 342 745 342 704 L342 704 Z " />
<glyph glyph-name="multiply" unicode="&#xd7;" horiz-adv-x="554" d="M277 124 L311 70 C318 59 331 44 348 44 L448 44 C463 44 474 57 474 70 L358 250 L474 430 C474 443 463 456 448 456 L348 456 C331 456 318 441 311 430 L277 376 L243 430 C236 441 223 456 206 456 L106 456 C91 456 80 443 80 430 L196 250 L80 70 C80 57 91 44 106 44 L206 44 C223 44 236 59 243 70 L277 124 Z " />
<glyph glyph-name="Oslash" unicode="&#xd8;" horiz-adv-x="633" d="M429 691 C418 691 414 681 411 672 L374 572 C356 576 337 578 317 578 C147 578 50 451 50 280 C50 165 92 75 172 27 L123 -106 C123 -115 130 -124 141 -124 L205 -124 C217 -124 219 -114 222 -106 L259 -5 C278 -8 297 -10 317 -10 C488 -10 583 110 583 280 C583 393 541 488 461 539 L510 672 C510 683 505 691 493 691 L429 691 Z M197 280 C197 367 230 444 317 444 C320 444 323 443 326 443 L225 168 C205 196 197 236 197 280 L197 280 Z M307 124 L408 396 C427 365 436 324 436 280 C436 192 404 124 317 124 L307 124 Z " />
<glyph glyph-name="Ugrave" unicode="&#xd9;" horiz-adv-x="640" d="M320 -10 C489 -10 560 86 560 253 L560 541 C560 556 549 568 534 568 L438 568 C421 568 413 556 413 541 L413 253 C413 170 399 117 320 117 C241 117 227 170 227 253 L227 541 C227 556 219 568 202 568 L106 568 C91 568 80 556 80 541 L80 253 C80 87 149 -10 320 -10 L320 -10 Z M222 799 C207 799 196 787 196 772 L240 658 C245 646 263 632 278 632 L359 632 C376 632 384 645 384 658 L340 772 C335 785 324 799 307 799 L222 799 Z " />
<glyph glyph-name="Uacute" unicode="&#xda;" horiz-adv-x="640" d="M320 -10 C489 -10 560 86 560 253 L560 541 C560 556 549 568 534 568 L438 568 C421 568 413 556 413 541 L413 253 C413 170 399 117 320 117 C241 117 227 170 227 253 L227 541 C227 556 219 568 202 568 L106 568 C91 568 80 556 80 541 L80 253 C80 87 149 -10 320 -10 L320 -10 Z M333 799 C316 799 305 785 300 772 L256 658 C256 645 264 632 281 632 L362 632 C377 632 395 646 400 658 L444 772 C444 787 433 799 418 799 L333 799 Z " />
<glyph glyph-name="Ucircumflex" unicode="&#xdb;" horiz-adv-x="640" d="M320 -10 C489 -10 560 86 560 253 L560 541 C560 556 549 568 534 568 L438 568 C421 568 413 556 413 541 L413 253 C413 170 399 117 320 117 C241 117 227 170 227 253 L227 541 C227 556 219 568 202 568 L106 568 C91 568 80 556 80 541 L80 253 C80 87 149 -10 320 -10 L320 -10 Z M271 836 C254 836 239 822 234 809 L158 658 C158 645 166 632 183 632 L254 632 C269 632 285 646 290 658 L321 725 L352 658 C357 646 373 632 388 632 L459 632 C476 632 484 645 484 658 L408 809 C403 822 388 836 371 836 L271 836 Z " />
<glyph glyph-name="Udieresis" unicode="&#xdc;" horiz-adv-x="640" d="M320 -10 C489 -10 560 86 560 253 L560 541 C560 556 549 568 534 568 L438 568 C421 568 413 556 413 541 L413 253 C413 170 399 117 320 117 C241 117 227 170 227 253 L227 541 C227 556 219 568 202 568 L106 568 C91 568 80 556 80 541 L80 253 C80 87 149 -10 320 -10 L320 -10 Z M148 704 C148 663 181 630 222 630 C263 630 296 663 296 704 C296 745 263 778 222 778 C181 778 148 745 148 704 L148 704 Z M345 704 C345 663 378 630 419 630 C460 630 493 663 493 704 C493 745 460 778 419 778 C378 778 345 745 345 704 L345 704 Z " />
<glyph glyph-name="Yacute" unicode="&#xdd;" horiz-adv-x="523" d="M262 361 L168 544 C157 567 144 568 125 568 L33 568 C18 568 10 555 10 542 L188 182 L188 26 C188 13 199 0 214 0 L310 0 C327 0 335 13 335 26 L335 182 L513 542 C513 555 505 568 490 568 L398 568 C379 568 366 567 355 544 L262 361 Z M274 799 C257 799 246 785 241 772 L197 658 C197 645 205 632 222 632 L303 632 C318 632 336 646 341 658 L385 772 C385 787 374 799 359 799 L274 799 Z " />
<glyph glyph-name="Thorn" unicode="&#xde;" horiz-adv-x="576" d="M126 568 C111 568 100 556 100 541 L100 26 C100 13 111 0 126 0 L222 0 C239 0 247 13 247 26 L247 65 L300 65 C471 65 546 170 546 279 L546 287 C546 396 471 500 300 500 L247 500 L247 541 C247 556 239 568 222 568 L126 568 Z M300 366 C388 366 399 327 399 287 L399 279 C399 239 388 199 300 199 L247 199 L247 366 L300 366 Z " />
<glyph glyph-name="germandbls" unicode="&#xdf;" horiz-adv-x="596" d="M311 112 C300 112 288 105 288 90 L288 23 C288 11 300 0 311 0 L338 0 C509 0 546 79 546 160 C546 196 539 254 476 272 C533 312 546 355 546 395 C546 487 478 568 338 568 L126 568 C111 568 100 556 100 541 L100 26 C100 13 111 0 126 0 L221 0 C236 0 247 13 247 26 L247 434 L340 434 C391 434 399 406 399 385 L399 377 C399 356 389 331 340 331 L317 331 C306 331 294 324 294 309 L294 238 C294 226 306 215 317 215 L340 215 C391 215 399 179 399 159 C399 138 389 112 340 112 L311 112 Z " />
<glyph glyph-name="agrave" unicode="&#xe0;" horiz-adv-x="592" d="M396 541 C392 554 385 568 364 568 L228 568 C207 568 200 554 196 541 L45 26 C45 13 53 0 68 0 L157 0 C176 0 185 14 189 26 L204 71 L388 71 L403 26 C407 14 416 0 435 0 L524 0 C539 0 547 13 547 26 L396 541 Z M244 206 L296 381 L348 206 L244 206 Z M191 799 C176 799 165 787 165 772 L209 658 C214 646 232 632 247 632 L328 632 C345 632 353 645 353 658 L309 772 C304 785 293 799 276 799 L191 799 Z " />
<glyph glyph-name="aacute" unicode="&#xe1;" horiz-adv-x="592" d="M396 541 C392 554 385 568 364 568 L228 568 C207 568 200 554 196 541 L45 26 C45 13 53 0 68 0 L157 0 C176 0 185 14 189 26 L204 71 L388 71 L403 26 C407 14 416 0 435 0 L524 0 C539 0 547 13 547 26 L396 541 Z M244 206 L296 381 L348 206 L244 206 Z M311 799 C294 799 283 785 278 772 L234 658 C234 645 242 632 259 632 L340 632 C355 632 373 646 378 658 L422 772 C422 787 411 799 396 799 L311 799 Z " />
<glyph glyph-name="acircumflex" unicode="&#xe2;" horiz-adv-x="592" d="M396 541 C392 554 385 568 364 568 L228 568 C207 568 200 554 196 541 L45 26 C45 13 53 0 68 0 L157 0 C176 0 185 14 189 26 L204 71 L388 71 L403 26 C407 14 416 0 435 0 L524 0 C539 0 547 13 547 26 L396 541 Z M244 206 L296 381 L348 206 L244 206 Z M246 836 C229 836 214 822 209 809 L133 658 C133 645 141 632 158 632 L229 632 C244 632 260 646 265 658 L296 725 L327 658 C332 646 348 632 363 632 L434 632 C451 632 459 645 459 658 L383 809 C378 822 363 836 346 836 L246 836 Z " />
<glyph glyph-name="atilde" unicode="&#xe3;" horiz-adv-x="592" d="M446 783 C441 788 434 795 423 795 C420 795 419 795 412 791 C393 778 379 772 356 772 C316 772 283 811 229 811 C190 811 159 793 128 769 C121 764 117 757 117 749 C117 745 118 741 119 736 L147 664 C152 656 159 652 168 652 C172 652 174 651 181 654 C197 667 209 671 229 671 C275 671 309 632 354 632 C395 632 433 651 464 678 C471 681 476 692 476 703 L446 783 Z M396 541 C392 554 385 568 364 568 L228 568 C207 568 200 554 196 541 L45 26 C45 13 53 0 68 0 L157 0 C176 0 185 14 189 26 L204 71 L388 71 L403 26 C407 14 416 0 435 0 L524 0 C539 0 547 13 547 26 L396 541 Z M244 206 L296 381 L348 206 L244 206 Z " />
<glyph glyph-name="adieresis" unicode="&#xe4;" horiz-adv-x="592" d="M396 541 C392 554 385 568 364 568 L228 568 C207 568 200 554 196 541 L45 26 C45 13 53 0 68 0 L157 0 C176 0 185 14 189 26 L204 71 L388 71 L403 26 C407 14 416 0 435 0 L524 0 C539 0 547 13 547 26 L396 541 Z M244 206 L296 381 L348 206 L244 206 Z M122 706 C122 665 155 632 196 632 C237 632 270 665 270 706 C270 747 237 780 196 780 C155 780 122 747 122 706 L122 706 Z M319 706 C319 665 352 632 393 632 C434 632 467 665 467 706 C467 747 434 780 393 780 C352 780 319 747 319 706 L319 706 Z " />
<glyph glyph-name="aring" unicode="&#xe5;" horiz-adv-x="592" d="M396 541 C392 554 385 568 364 568 L228 568 C207 568 200 554 196 541 L45 26 C45 13 53 0 68 0 L157 0 C176 0 185 14 189 26 L204 71 L388 71 L403 26 C407 14 416 0 435 0 L524 0 C539 0 547 13 547 26 L396 541 Z M244 206 L296 381 L348 206 L244 206 Z M296 898 C223 898 163 838 163 765 C163 692 223 632 296 632 C369 632 429 692 429 765 C429 838 369 898 296 898 L296 898 Z M296 729 C277 729 260 746 260 765 C260 784 277 801 296 801 C315 801 332 784 332 765 C332 746 315 729 296 729 L296 729 Z " />
<glyph glyph-name="ae" unicode="&#xe6;" horiz-adv-x="833" d="M10 29 C10 10 21 0 33 0 L126 0 C143 0 157 12 162 25 L178 70 L349 70 L349 26 C349 13 360 0 375 0 L736 0 C749 0 763 9 763 26 L763 113 C763 128 749 140 736 140 L496 140 L496 219 L666 219 C679 219 693 228 693 245 L693 323 C693 338 679 350 666 350 L496 350 L496 428 L736 428 C749 428 763 440 763 455 L763 542 C763 559 749 568 736 568 L234 568 C217 568 203 556 198 543 L10 29 Z M309 428 L349 428 L349 210 L229 210 L309 428 Z " />
<glyph glyph-name="ccedilla" unicode="&#xe7;" horiz-adv-x="584" d="M260 -63 C260 -76 271 -89 286 -89 L302 -90 C317 -92 324 -99 324 -112 C324 -120 319 -129 303 -129 C275 -129 253 -111 246 -110 C238 -110 235 -112 232 -115 L214 -146 C212 -150 211 -153 211 -156 C211 -161 213 -163 216 -166 C249 -193 275 -200 314 -200 C359 -200 407 -172 407 -118 C407 -82 391 -53 350 -41 C350 -40 351 -22 352 -7 C441 5 505 55 541 128 C543 132 544 136 544 141 C544 152 540 160 531 165 L466 198 C462 200 458 201 453 201 C442 201 433 197 428 188 C397 137 354 117 307 117 C220 117 187 192 187 280 C187 367 220 451 307 451 C354 451 397 431 428 380 C433 371 442 367 453 367 C458 367 462 368 466 370 L531 403 C540 408 544 416 544 427 C544 432 543 436 541 440 C500 525 420 578 307 578 C137 578 40 451 40 280 C40 124 121 9 266 -7 L260 -63 Z " />
<glyph glyph-name="egrave" unicode="&#xe8;" horiz-adv-x="584" d="M126 568 C111 568 100 555 100 542 L100 26 C100 13 111 0 126 0 L487 0 C500 0 514 9 514 26 L514 113 C514 128 500 140 487 140 L247 140 L247 219 L417 219 C430 219 444 228 444 245 L444 323 C444 338 430 350 417 350 L247 350 L247 428 L487 428 C500 428 514 440 514 455 L514 542 C514 559 500 568 487 568 L126 568 Z M223 799 C208 799 197 787 197 772 L241 658 C246 646 264 632 279 632 L360 632 C377 632 385 645 385 658 L341 772 C336 785 325 799 308 799 L223 799 Z " />
<glyph glyph-name="eacute" unicode="&#xe9;" horiz-adv-x="584" d="M126 568 C111 568 100 555 100 542 L100 26 C100 13 111 0 126 0 L487 0 C500 0 514 9 514 26 L514 113 C514 128 500 140 487 140 L247 140 L247 219 L417 219 C430 219 444 228 444 245 L444 323 C444 338 430 350 417 350 L247 350 L247 428 L487 428 C500 428 514 440 514 455 L514 542 C514 559 500 568 487 568 L126 568 Z M317 799 C300 799 289 785 284 772 L240 658 C240 645 248 632 265 632 L346 632 C361 632 379 646 384 658 L428 772 C428 787 417 799 402 799 L317 799 Z " />
<glyph glyph-name="ecircumflex" unicode="&#xea;" horiz-adv-x="584" d="M126 568 C111 568 100 555 100 542 L100 26 C100 13 111 0 126 0 L487 0 C500 0 514 9 514 26 L514 113 C514 128 500 140 487 140 L247 140 L247 219 L417 219 C430 219 444 228 444 245 L444 323 C444 338 430 350 417 350 L247 350 L247 428 L487 428 C500 428 514 440 514 455 L514 542 C514 559 500 568 487 568 L126 568 Z M257 836 C240 836 225 822 220 809 L144 658 C144 645 152 632 169 632 L240 632 C255 632 271 646 276 658 L307 725 L338 658 C343 646 359 632 374 632 L445 632 C462 632 470 645 470 658 L394 809 C389 822 374 836 357 836 L257 836 Z " />
<glyph glyph-name="edieresis" unicode="&#xeb;" horiz-adv-x="584" d="M126 568 C111 568 100 555 100 542 L100 26 C100 13 111 0 126 0 L487 0 C500 0 514 9 514 26 L514 113 C514 128 500 140 487 140 L247 140 L247 219 L417 219 C430 219 444 228 444 245 L444 323 C444 338 430 350 417 350 L247 350 L247 428 L487 428 C500 428 514 440 514 455 L514 542 C514 559 500 568 487 568 L126 568 Z M139 706 C139 665 172 632 213 632 C254 632 287 665 287 706 C287 747 254 780 213 780 C172 780 139 747 139 706 L139 706 Z M336 706 C336 665 369 632 410 632 C451 632 484 665 484 706 C484 747 451 780 410 780 C369 780 336 747 336 706 L336 706 Z " />
<glyph glyph-name="igrave" unicode="&#xec;" horiz-adv-x="347" d="M126 568 C111 568 100 556 100 541 L100 26 C100 13 111 0 126 0 L222 0 C239 0 247 13 247 26 L247 541 C247 556 239 568 222 568 L126 568 Z M77 799 C62 799 51 787 51 772 L95 658 C100 646 118 632 133 632 L214 632 C231 632 239 645 239 658 L195 772 C190 785 179 799 162 799 L77 799 Z " />
<glyph glyph-name="iacute" unicode="&#xed;" horiz-adv-x="347" d="M125 568 C108 568 100 556 100 541 L100 26 C100 13 108 0 125 0 L221 0 C236 0 247 13 247 26 L247 541 C247 556 236 568 221 568 L125 568 Z M185 799 C168 799 157 785 152 772 L108 658 C108 645 116 632 133 632 L214 632 C229 632 247 646 252 658 L296 772 C296 787 285 799 270 799 L185 799 Z " />
<glyph glyph-name="icircumflex" unicode="&#xee;" horiz-adv-x="347" d="M125 568 C108 568 100 556 100 541 L100 26 C100 13 108 0 125 0 L221 0 C236 0 247 13 247 26 L247 541 C247 556 236 568 221 568 L125 568 Z M123 836 C106 836 91 822 86 809 L10 658 C10 645 18 632 35 632 L106 632 C121 632 137 646 142 658 L173 725 L204 658 C209 646 225 632 240 632 L311 632 C328 632 336 645 336 658 L260 809 C255 822 240 836 223 836 L123 836 Z " />
<glyph glyph-name="idieresis" unicode="&#xef;" horiz-adv-x="347" d="M125 568 C108 568 100 556 100 541 L100 26 C100 13 108 0 125 0 L221 0 C236 0 247 13 247 26 L247 541 C247 556 236 568 221 568 L125 568 Z M-2 706 C-2 665 31 632 72 632 C113 632 146 665 146 706 C146 747 113 780 72 780 C31 780 -2 747 -2 706 L-2 706 Z M203 706 C203 665 236 632 277 632 C318 632 351 665 351 706 C351 747 318 780 277 780 C236 780 203 747 203 706 L203 706 Z " />
<glyph glyph-name="eth" unicode="&#xf0;" horiz-adv-x="638" d="M146 568 C131 568 120 556 120 541 L120 352 L76 352 C63 352 50 340 50 325 L50 238 C50 221 63 212 76 212 L120 212 L120 26 C120 13 131 0 146 0 L330 0 C500 0 588 115 588 280 C588 446 500 568 330 568 L146 568 Z M353 212 C366 212 380 221 380 238 L380 325 C380 340 366 352 353 352 L267 352 L267 434 L330 434 C417 434 441 363 441 280 C441 196 417 134 330 134 L267 134 L267 212 L353 212 Z " />
<glyph glyph-name="ntilde" unicode="&#xf1;" horiz-adv-x="661" d="M440 568 C423 568 414 556 414 541 L414 285 C330 420 288 486 266 521 C253 541 246 552 243 555 C239 564 226 568 218 568 L126 568 C113 568 100 556 100 541 L100 26 C100 13 113 0 126 0 L222 0 C239 0 247 13 247 26 L247 286 L420 13 C427 2 437 0 445 0 L535 0 C548 0 561 13 561 26 L561 541 C561 556 548 568 535 568 L440 568 Z M466 783 C461 788 454 795 443 795 C440 795 439 795 432 791 C413 778 399 772 376 772 C336 772 303 811 249 811 C210 811 179 793 148 769 C141 764 137 757 137 749 C137 745 138 741 139 736 L167 664 C172 656 179 652 188 652 C192 652 194 651 201 654 C217 667 229 671 249 671 C295 671 329 632 374 632 C415 632 453 651 484 678 C491 681 496 692 496 703 L466 783 Z " />
<glyph glyph-name="ograve" unicode="&#xf2;" horiz-adv-x="633" d="M317 -10 C488 -10 583 110 583 280 C583 451 488 578 317 578 C147 578 50 451 50 280 C50 110 147 -10 317 -10 L317 -10 Z M317 124 C230 124 197 192 197 280 C197 367 230 444 317 444 C404 444 436 367 436 280 C436 192 404 124 317 124 L317 124 Z M216 799 C201 799 190 787 190 772 L234 658 C239 646 257 632 272 632 L353 632 C370 632 378 645 378 658 L334 772 C329 785 318 799 301 799 L216 799 Z " />
<glyph glyph-name="oacute" unicode="&#xf3;" horiz-adv-x="633" d="M317 -10 C488 -10 583 110 583 280 C583 451 488 578 317 578 C147 578 50 451 50 280 C50 110 147 -10 317 -10 L317 -10 Z M317 124 C230 124 197 192 197 280 C197 367 230 444 317 444 C404 444 436 367 436 280 C436 192 404 124 317 124 L317 124 Z M332 799 C315 799 304 785 299 772 L255 658 C255 645 263 632 280 632 L361 632 C376 632 394 646 399 658 L443 772 C443 787 432 799 417 799 L332 799 Z " />
<glyph glyph-name="ocircumflex" unicode="&#xf4;" horiz-adv-x="633" d="M317 -10 C488 -10 583 110 583 280 C583 451 488 578 317 578 C147 578 50 451 50 280 C50 110 147 -10 317 -10 L317 -10 Z M317 124 C230 124 197 192 197 280 C197 367 230 444 317 444 C404 444 436 367 436 280 C436 192 404 124 317 124 L317 124 Z M268 836 C251 836 236 822 231 809 L155 658 C155 645 163 632 180 632 L251 632 C266 632 282 646 287 658 L318 725 L349 658 C354 646 370 632 385 632 L456 632 C473 632 481 645 481 658 L405 809 C400 822 385 836 368 836 L268 836 Z " />
<glyph glyph-name="otilde" unicode="&#xf5;" horiz-adv-x="633" d="M317 -10 C488 -10 583 110 583 280 C583 451 488 578 317 578 C147 578 50 451 50 280 C50 110 147 -10 317 -10 L317 -10 Z M317 124 C230 124 197 192 197 280 C197 367 230 444 317 444 C404 444 436 367 436 280 C436 192 404 124 317 124 L317 124 Z M468 783 C463 788 456 795 445 795 C442 795 441 795 434 791 C415 778 401 772 378 772 C338 772 305 811 251 811 C212 811 181 793 150 769 C143 764 139 757 139 749 C139 745 140 741 141 736 L169 664 C174 656 181 652 190 652 C194 652 196 651 203 654 C219 667 231 671 251 671 C297 671 331 632 376 632 C417 632 455 651 486 678 C493 681 498 692 498 703 L468 783 Z " />
<glyph glyph-name="odieresis" unicode="&#xf6;" horiz-adv-x="633" d="M317 -10 C488 -10 583 110 583 280 C583 451 488 578 317 578 C147 578 50 451 50 280 C50 110 147 -10 317 -10 L317 -10 Z M317 124 C230 124 197 192 197 280 C197 367 230 444 317 444 C404 444 436 367 436 280 C436 192 404 124 317 124 L317 124 Z M145 704 C145 663 178 630 219 630 C260 630 293 663 293 704 C293 745 260 778 219 778 C178 778 145 745 145 704 L145 704 Z M342 704 C342 663 375 630 416 630 C457 630 490 663 490 704 C490 745 457 778 416 778 C375 778 342 745 342 704 L342 704 Z " />
<glyph glyph-name="divide" unicode="&#xf7;" horiz-adv-x="490" d="M383 182 C396 182 410 191 410 208 L410 295 C410 310 396 322 383 322 L106 322 C93 322 80 310 80 295 L80 208 C80 191 93 182 106 182 L383 182 Z M166 69 C166 25 201 -10 245 -10 C289 -10 324 25 324 69 C324 113 289 148 245 148 C201 148 166 113 166 69 L166 69 Z M166 435 C166 391 201 356 245 356 C289 356 324 391 324 435 C324 479 289 514 245 514 C201 514 166 479 166 435 L166 435 Z " />
<glyph glyph-name="oslash" unicode="&#xf8;" horiz-adv-x="633" d="M429 691 C418 691 414 681 411 672 L374 572 C356 576 337 578 317 578 C147 578 50 451 50 280 C50 165 92 75 172 27 L123 -106 C123 -115 130 -124 141 -124 L205 -124 C217 -124 219 -114 222 -106 L259 -5 C278 -8 297 -10 317 -10 C488 -10 583 110 583 280 C583 393 541 488 461 539 L510 672 C510 683 505 691 493 691 L429 691 Z M197 280 C197 367 230 444 317 444 C320 444 323 443 326 443 L225 168 C205 196 197 236 197 280 L197 280 Z M307 124 L408 396 C427 365 436 324 436 280 C436 192 404 124 317 124 L307 124 Z " />
<glyph glyph-name="ugrave" unicode="&#xf9;" horiz-adv-x="640" d="M320 -10 C489 -10 560 86 560 253 L560 541 C560 556 549 568 534 568 L438 568 C421 568 413 556 413 541 L413 253 C413 170 399 117 320 117 C241 117 227 170 227 253 L227 541 C227 556 219 568 202 568 L106 568 C91 568 80 556 80 541 L80 253 C80 87 149 -10 320 -10 L320 -10 Z M222 799 C207 799 196 787 196 772 L240 658 C245 646 263 632 278 632 L359 632 C376 632 384 645 384 658 L340 772 C335 785 324 799 307 799 L222 799 Z " />
<glyph glyph-name="uacute" unicode="&#xfa;" horiz-adv-x="640" d="M320 -10 C489 -10 560 86 560 253 L560 541 C560 556 549 568 534 568 L438 568 C421 568 413 556 413 541 L413 253 C413 170 399 117 320 117 C241 117 227 170 227 253 L227 541 C227 556 219 568 202 568 L106 568 C91 568 80 556 80 541 L80 253 C80 87 149 -10 320 -10 L320 -10 Z M333 799 C316 799 305 785 300 772 L256 658 C256 645 264 632 281 632 L362 632 C377 632 395 646 400 658 L444 772 C444 787 433 799 418 799 L333 799 Z " />
<glyph glyph-name="ucircumflex" unicode="&#xfb;" horiz-adv-x="640" d="M320 -10 C489 -10 560 86 560 253 L560 541 C560 556 549 568 534 568 L438 568 C421 568 413 556 413 541 L413 253 C413 170 399 117 320 117 C241 117 227 170 227 253 L227 541 C227 556 219 568 202 568 L106 568 C91 568 80 556 80 541 L80 253 C80 87 149 -10 320 -10 L320 -10 Z M271 836 C254 836 239 822 234 809 L158 658 C158 645 166 632 183 632 L254 632 C269 632 285 646 290 658 L321 725 L352 658 C357 646 373 632 388 632 L459 632 C476 632 484 645 484 658 L408 809 C403 822 388 836 371 836 L271 836 Z " />
<glyph glyph-name="udieresis" unicode="&#xfc;" horiz-adv-x="640" d="M320 -10 C489 -10 560 86 560 253 L560 541 C560 556 549 568 534 568 L438 568 C421 568 413 556 413 541 L413 253 C413 170 399 117 320 117 C241 117 227 170 227 253 L227 541 C227 556 219 568 202 568 L106 568 C91 568 80 556 80 541 L80 253 C80 87 149 -10 320 -10 L320 -10 Z M148 704 C148 663 181 630 222 630 C263 630 296 663 296 704 C296 745 263 778 222 778 C181 778 148 745 148 704 L148 704 Z M345 704 C345 663 378 630 419 630 C460 630 493 663 493 704 C493 745 460 778 419 778 C378 778 345 745 345 704 L345 704 Z " />
<glyph glyph-name="yacute" unicode="&#xfd;" horiz-adv-x="523" d="M262 361 L168 544 C157 567 144 568 125 568 L33 568 C18 568 10 555 10 542 L188 182 L188 26 C188 13 199 0 214 0 L310 0 C327 0 335 13 335 26 L335 182 L513 542 C513 555 505 568 490 568 L398 568 C379 568 366 567 355 544 L262 361 Z M274 799 C257 799 246 785 241 772 L197 658 C197 645 205 632 222 632 L303 632 C318 632 336 646 341 658 L385 772 C385 787 374 799 359 799 L274 799 Z " />
<glyph glyph-name="thorn" unicode="&#xfe;" horiz-adv-x="576" d="M126 568 C111 568 100 556 100 541 L100 26 C100 13 111 0 126 0 L222 0 C239 0 247 13 247 26 L247 65 L300 65 C471 65 546 170 546 279 L546 287 C546 396 471 500 300 500 L247 500 L247 541 C247 556 239 568 222 568 L126 568 Z M300 366 C388 366 399 327 399 287 L399 279 C399 239 388 199 300 199 L247 199 L247 366 L300 366 Z " />
<glyph glyph-name="ydieresis" unicode="&#xff;" horiz-adv-x="523" d="M262 361 L168 544 C157 567 144 568 125 568 L33 568 C18 568 10 555 10 542 L188 182 L188 26 C188 13 199 0 214 0 L310 0 C327 0 335 13 335 26 L335 182 L513 542 C513 555 505 568 490 568 L398 568 C379 568 366 567 355 544 L262 361 Z M90 704 C90 663 123 630 164 630 C205 630 238 663 238 704 C238 745 205 778 164 778 C123 778 90 745 90 704 L90 704 Z M287 704 C287 663 320 630 361 630 C402 630 435 663 435 704 C435 745 402 778 361 778 C320 778 287 745 287 704 L287 704 Z " />
<glyph glyph-name="Amacron" unicode="&#x100;" horiz-adv-x="592" d="M396 541 C392 554 385 568 364 568 L228 568 C207 568 200 554 196 541 L45 26 C45 13 53 0 68 0 L157 0 C176 0 185 14 189 26 L204 71 L388 71 L403 26 C407 14 416 0 435 0 L524 0 C539 0 547 13 547 26 L396 541 Z M244 206 L296 381 L348 206 L244 206 Z M436 632 C449 632 463 641 463 658 L463 732 C463 747 449 759 436 759 L159 759 C146 759 133 747 133 732 L133 658 C133 641 146 632 159 632 L436 632 Z " />
<glyph glyph-name="amacron" unicode="&#x101;" horiz-adv-x="592" d="M396 541 C392 554 385 568 364 568 L228 568 C207 568 200 554 196 541 L45 26 C45 13 53 0 68 0 L157 0 C176 0 185 14 189 26 L204 71 L388 71 L403 26 C407 14 416 0 435 0 L524 0 C539 0 547 13 547 26 L396 541 Z M244 206 L296 381 L348 206 L244 206 Z M436 632 C449 632 463 641 463 658 L463 732 C463 747 449 759 436 759 L159 759 C146 759 133 747 133 732 L133 658 C133 641 146 632 159 632 L436 632 Z " />
<glyph glyph-name="Abreve" unicode="&#x102;" horiz-adv-x="592" d="M296 632 C429 632 460 703 460 786 L460 791 C460 802 452 811 441 811 L370 811 C357 811 351 802 351 791 L351 786 C351 749 347 723 297 723 C247 723 243 749 243 786 L243 791 C243 802 237 811 224 811 L153 811 C142 811 134 802 134 791 L134 786 C134 703 165 632 296 632 L296 632 Z M396 541 C392 554 385 568 364 568 L228 568 C207 568 200 554 196 541 L45 26 C45 13 53 0 68 0 L157 0 C176 0 185 14 189 26 L204 71 L388 71 L403 26 C407 14 416 0 435 0 L524 0 C539 0 547 13 547 26 L396 541 Z M244 206 L296 381 L348 206 L244 206 Z " />
<glyph glyph-name="abreve" unicode="&#x103;" horiz-adv-x="592" d="M296 632 C429 632 460 703 460 786 L460 791 C460 802 452 811 441 811 L370 811 C357 811 351 802 351 791 L351 786 C351 749 347 723 297 723 C247 723 243 749 243 786 L243 791 C243 802 237 811 224 811 L153 811 C142 811 134 802 134 791 L134 786 C134 703 165 632 296 632 L296 632 Z M396 541 C392 554 385 568 364 568 L228 568 C207 568 200 554 196 541 L45 26 C45 13 53 0 68 0 L157 0 C176 0 185 14 189 26 L204 71 L388 71 L403 26 C407 14 416 0 435 0 L524 0 C539 0 547 13 547 26 L396 541 Z M244 206 L296 381 L348 206 L244 206 Z " />
<glyph glyph-name="Aogonek" unicode="&#x104;" horiz-adv-x="592" d="M396 541 C392 554 385 568 364 568 L228 568 C207 568 200 554 196 541 L45 26 C45 13 53 0 68 0 L157 0 C176 0 185 14 189 26 L204 71 L388 71 L394 51 C361 43 326 24 326 -32 C326 -112 388 -129 431 -129 C452 -129 482 -123 505 -100 C506 -97 508 -96 508 -93 C508 -92 508 -91 507 -90 L487 -46 C484 -45 483 -44 482 -44 C478 -44 478 -45 475 -46 C462 -57 448 -58 436 -58 C417 -58 407 -48 407 -29 C407 -11 415 -1 431 0 L524 0 C539 0 547 13 547 26 L396 541 Z M244 206 L296 381 L348 206 L244 206 Z " />
<glyph glyph-name="aogonek" unicode="&#x105;" horiz-adv-x="592" d="M396 541 C392 554 385 568 364 568 L228 568 C207 568 200 554 196 541 L45 26 C45 13 53 0 68 0 L157 0 C176 0 185 14 189 26 L204 71 L388 71 L394 51 C361 43 326 24 326 -32 C326 -112 388 -129 431 -129 C452 -129 482 -123 505 -100 C506 -97 508 -96 508 -93 C508 -92 508 -91 507 -90 L487 -46 C484 -45 483 -44 482 -44 C478 -44 478 -45 475 -46 C462 -57 448 -58 436 -58 C417 -58 407 -48 407 -29 C407 -11 415 -1 431 0 L524 0 C539 0 547 13 547 26 L396 541 Z M244 206 L296 381 L348 206 L244 206 Z " />
<glyph glyph-name="Cacute" unicode="&#x106;" horiz-adv-x="584" d="M307 451 C354 451 397 431 428 380 C433 371 442 367 453 367 C458 367 462 368 466 370 L531 403 C540 408 544 416 544 427 C544 432 543 436 541 440 C500 525 420 578 307 578 C137 578 40 451 40 280 C40 110 137 -10 307 -10 C420 -10 500 43 541 128 C543 132 544 136 544 141 C544 152 540 160 531 165 L466 198 C462 200 458 201 453 201 C442 201 433 197 428 188 C397 137 354 117 307 117 C220 117 187 192 187 280 C187 367 220 451 307 451 L307 451 Z M311 799 C294 799 283 785 278 772 L234 658 C234 645 242 632 259 632 L340 632 C355 632 373 646 378 658 L422 772 C422 787 411 799 396 799 L311 799 Z " />
<glyph glyph-name="cacute" unicode="&#x107;" horiz-adv-x="584" d="M307 451 C354 451 397 431 428 380 C433 371 442 367 453 367 C458 367 462 368 466 370 L531 403 C540 408 544 416 544 427 C544 432 543 436 541 440 C500 525 420 578 307 578 C137 578 40 451 40 280 C40 110 137 -10 307 -10 C420 -10 500 43 541 128 C543 132 544 136 544 141 C544 152 540 160 531 165 L466 198 C462 200 458 201 453 201 C442 201 433 197 428 188 C397 137 354 117 307 117 C220 117 187 192 187 280 C187 367 220 451 307 451 L307 451 Z M318 799 C301 799 290 785 285 772 L241 658 C241 645 249 632 266 632 L347 632 C362 632 380 646 385 658 L429 772 C429 787 418 799 403 799 L318 799 Z " />
<glyph glyph-name="Ccircumflex" unicode="&#x108;" horiz-adv-x="584" d="M307 451 C354 451 397 431 428 380 C433 371 442 367 453 367 C458 367 462 368 466 370 L531 403 C540 408 544 416 544 427 C544 432 543 436 541 440 C500 525 420 578 307 578 C137 578 40 451 40 280 C40 110 137 -10 307 -10 C420 -10 500 43 541 128 C543 132 544 136 544 141 C544 152 540 160 531 165 L466 198 C462 200 458 201 453 201 C442 201 433 197 428 188 C397 137 354 117 307 117 C220 117 187 192 187 280 C187 367 220 451 307 451 L307 451 Z M246 836 C229 836 214 822 209 809 L133 658 C133 645 141 632 158 632 L229 632 C244 632 260 646 265 658 L296 725 L327 658 C332 646 348 632 363 632 L434 632 C451 632 459 645 459 658 L383 809 C378 822 363 836 346 836 L246 836 Z " />
<glyph glyph-name="ccircumflex" unicode="&#x109;" horiz-adv-x="584" d="M307 451 C354 451 397 431 428 380 C433 371 442 367 453 367 C458 367 462 368 466 370 L531 403 C540 408 544 416 544 427 C544 432 543 436 541 440 C500 525 420 578 307 578 C137 578 40 451 40 280 C40 110 137 -10 307 -10 C420 -10 500 43 541 128 C543 132 544 136 544 141 C544 152 540 160 531 165 L466 198 C462 200 458 201 453 201 C442 201 433 197 428 188 C397 137 354 117 307 117 C220 117 187 192 187 280 C187 367 220 451 307 451 L307 451 Z M246 836 C229 836 214 822 209 809 L133 658 C133 645 141 632 158 632 L229 632 C244 632 260 646 265 658 L296 725 L327 658 C332 646 348 632 363 632 L434 632 C451 632 459 645 459 658 L383 809 C378 822 363 836 346 836 L246 836 Z " />
<glyph glyph-name="Cdotaccent" unicode="&#x10a;" horiz-adv-x="584" d="M307 451 C354 451 397 431 428 380 C433 371 442 367 453 367 C458 367 462 368 466 370 L531 403 C540 408 544 416 544 427 C544 432 543 436 541 440 C500 525 420 578 307 578 C137 578 40 451 40 280 C40 110 137 -10 307 -10 C420 -10 500 43 541 128 C543 132 544 136 544 141 C544 152 540 160 531 165 L466 198 C462 200 458 201 453 201 C442 201 433 197 428 188 C397 137 354 117 307 117 C220 117 187 192 187 280 C187 367 220 451 307 451 L307 451 Z M234 706 C234 665 267 632 308 632 C349 632 382 665 382 706 C382 747 349 780 308 780 C267 780 234 747 234 706 L234 706 Z " />
<glyph glyph-name="cdotaccent" unicode="&#x10b;" horiz-adv-x="584" d="M307 451 C354 451 397 431 428 380 C433 371 442 367 453 367 C458 367 462 368 466 370 L531 403 C540 408 544 416 544 427 C544 432 543 436 541 440 C500 525 420 578 307 578 C137 578 40 451 40 280 C40 110 137 -10 307 -10 C420 -10 500 43 541 128 C543 132 544 136 544 141 C544 152 540 160 531 165 L466 198 C462 200 458 201 453 201 C442 201 433 197 428 188 C397 137 354 117 307 117 C220 117 187 192 187 280 C187 367 220 451 307 451 L307 451 Z M234 706 C234 665 267 632 308 632 C349 632 382 665 382 706 C382 747 349 780 308 780 C267 780 234 747 234 706 L234 706 Z " />
<glyph glyph-name="Ccaron" unicode="&#x10c;" horiz-adv-x="584" d="M307 451 C354 451 397 431 428 380 C433 371 442 367 453 367 C458 367 462 368 466 370 L531 403 C540 408 544 416 544 427 C544 432 543 436 541 440 C500 525 420 578 307 578 C137 578 40 451 40 280 C40 110 137 -10 307 -10 C420 -10 500 43 541 128 C543 132 544 136 544 141 C544 152 540 160 531 165 L466 198 C462 200 458 201 453 201 C442 201 433 197 428 188 C397 137 354 117 307 117 C220 117 187 192 187 280 C187 367 220 451 307 451 L307 451 Z M358 632 C375 632 390 646 395 659 L471 810 C471 823 463 836 446 836 L375 836 C360 836 344 822 339 810 L308 743 L277 810 C272 822 256 836 241 836 L170 836 C153 836 145 823 145 810 L221 659 C226 646 241 632 258 632 L358 632 Z " />
<glyph glyph-name="ccaron" unicode="&#x10d;" horiz-adv-x="584" d="M307 451 C354 451 397 431 428 380 C433 371 442 367 453 367 C458 367 462 368 466 370 L531 403 C540 408 544 416 544 427 C544 432 543 436 541 440 C500 525 420 578 307 578 C137 578 40 451 40 280 C40 110 137 -10 307 -10 C420 -10 500 43 541 128 C543 132 544 136 544 141 C544 152 540 160 531 165 L466 198 C462 200 458 201 453 201 C442 201 433 197 428 188 C397 137 354 117 307 117 C220 117 187 192 187 280 C187 367 220 451 307 451 L307 451 Z M360 632 C377 632 392 646 397 659 L473 810 C473 823 465 836 448 836 L377 836 C362 836 346 822 341 810 L310 743 L279 810 C274 822 258 836 243 836 L172 836 C155 836 147 823 147 810 L223 659 C228 646 243 632 260 632 L360 632 Z " />
<glyph glyph-name="Dcaron" unicode="&#x10e;" horiz-adv-x="618" d="M126 568 C111 568 100 556 100 541 L100 26 C100 13 111 0 126 0 L310 0 C480 0 568 115 568 280 C568 446 480 568 310 568 L126 568 Z M247 134 L247 434 L310 434 C397 434 421 363 421 280 C421 196 397 134 310 134 L247 134 Z M358 632 C375 632 390 646 395 659 L471 810 C471 823 463 836 446 836 L375 836 C360 836 344 822 339 810 L308 743 L277 810 C272 822 256 836 241 836 L170 836 C153 836 145 823 145 810 L221 659 C226 646 241 632 258 632 L358 632 Z " />
<glyph glyph-name="dcaron" unicode="&#x10f;" horiz-adv-x="787" d="M126 568 C111 568 100 556 100 541 L100 26 C100 13 111 0 126 0 L310 0 C480 0 568 115 568 280 C568 446 480 568 310 568 L126 568 Z M247 134 L247 434 L310 434 C397 434 421 363 421 280 C421 196 397 134 310 134 L247 134 Z M609 489 C609 464 619 444 639 427 L614 354 C613 350 612 347 612 345 C612 337 615 331 622 326 L660 314 C664 312 668 311 671 311 C679 311 685 314 688 321 C760 444 767 457 767 489 C766 533 731 568 688 568 C644 568 609 533 609 489 L609 489 Z " />
<glyph glyph-name="Dcroat" unicode="&#x110;" horiz-adv-x="638" d="M146 568 C131 568 120 556 120 541 L120 352 L76 352 C63 352 50 340 50 325 L50 238 C50 221 63 212 76 212 L120 212 L120 26 C120 13 131 0 146 0 L330 0 C500 0 588 115 588 280 C588 446 500 568 330 568 L146 568 Z M353 212 C366 212 380 221 380 238 L380 325 C380 340 366 352 353 352 L267 352 L267 434 L330 434 C417 434 441 363 441 280 C441 196 417 134 330 134 L267 134 L267 212 L353 212 Z " />
<glyph glyph-name="dcroat" unicode="&#x111;" horiz-adv-x="638" d="M146 568 C131 568 120 556 120 541 L120 352 L76 352 C63 352 50 340 50 325 L50 238 C50 221 63 212 76 212 L120 212 L120 26 C120 13 131 0 146 0 L330 0 C500 0 588 115 588 280 C588 446 500 568 330 568 L146 568 Z M353 212 C366 212 380 221 380 238 L380 325 C380 340 366 352 353 352 L267 352 L267 434 L330 434 C417 434 441 363 441 280 C441 196 417 134 330 134 L267 134 L267 212 L353 212 Z " />
<glyph glyph-name="Emacron" unicode="&#x112;" horiz-adv-x="584" d="M126 568 C111 568 100 555 100 542 L100 26 C100 13 111 0 126 0 L487 0 C500 0 514 9 514 26 L514 113 C514 128 500 140 487 140 L247 140 L247 219 L417 219 C430 219 444 228 444 245 L444 323 C444 338 430 350 417 350 L247 350 L247 428 L487 428 C500 428 514 440 514 455 L514 542 C514 559 500 568 487 568 L126 568 Z M445 632 C458 632 472 641 472 658 L472 732 C472 747 458 759 445 759 L168 759 C155 759 142 747 142 732 L142 658 C142 641 155 632 168 632 L445 632 Z " />
<glyph glyph-name="emacron" unicode="&#x113;" horiz-adv-x="584" d="M126 568 C111 568 100 555 100 542 L100 26 C100 13 111 0 126 0 L487 0 C500 0 514 9 514 26 L514 113 C514 128 500 140 487 140 L247 140 L247 219 L417 219 C430 219 444 228 444 245 L444 323 C444 338 430 350 417 350 L247 350 L247 428 L487 428 C500 428 514 440 514 455 L514 542 C514 559 500 568 487 568 L126 568 Z M445 632 C458 632 472 641 472 658 L472 732 C472 747 458 759 445 759 L168 759 C155 759 142 747 142 732 L142 658 C142 641 155 632 168 632 L445 632 Z " />
<glyph glyph-name="Edotaccent" unicode="&#x116;" horiz-adv-x="584" d="M126 568 C111 568 100 555 100 542 L100 26 C100 13 111 0 126 0 L487 0 C500 0 514 9 514 26 L514 113 C514 128 500 140 487 140 L247 140 L247 219 L417 219 C430 219 444 228 444 245 L444 323 C444 338 430 350 417 350 L247 350 L247 428 L487 428 C500 428 514 440 514 455 L514 542 C514 559 500 568 487 568 L126 568 Z M249 706 C249 665 282 632 323 632 C364 632 397 665 397 706 C397 747 364 780 323 780 C282 780 249 747 249 706 L249 706 Z " />
<glyph glyph-name="edotaccent" unicode="&#x117;" horiz-adv-x="584" d="M126 568 C111 568 100 555 100 542 L100 26 C100 13 111 0 126 0 L487 0 C500 0 514 9 514 26 L514 113 C514 128 500 140 487 140 L247 140 L247 219 L417 219 C430 219 444 228 444 245 L444 323 C444 338 430 350 417 350 L247 350 L247 428 L487 428 C500 428 514 440 514 455 L514 542 C514 559 500 568 487 568 L126 568 Z M249 706 C249 665 282 632 323 632 C364 632 397 665 397 706 C397 747 364 780 323 780 C282 780 249 747 249 706 L249 706 Z " />
<glyph glyph-name="Eogonek" unicode="&#x118;" horiz-adv-x="584" d="M126 568 C111 568 100 555 100 542 L100 26 C100 13 111 0 126 0 L363 0 C354 -15 342 -40 342 -77 C342 -131 389 -161 432 -161 C453 -161 487 -155 510 -132 C511 -129 513 -128 513 -125 C513 -124 513 -123 512 -122 L492 -78 C489 -77 488 -76 487 -76 C483 -76 483 -77 480 -78 C467 -89 453 -90 441 -90 C422 -90 419 -82 419 -61 C419 -53 424 -11 443 0 L487 0 C500 0 514 9 514 26 L514 113 C514 128 500 140 487 140 L247 140 L247 219 L417 219 C430 219 444 228 444 245 L444 323 C444 338 430 350 417 350 L247 350 L247 428 L487 428 C500 428 514 440 514 455 L514 542 C514 559 500 568 487 568 L126 568 Z " />
<glyph glyph-name="eogonek" unicode="&#x119;" horiz-adv-x="584" d="M126 568 C111 568 100 555 100 542 L100 26 C100 13 111 0 126 0 L363 0 C354 -15 342 -40 342 -77 C342 -131 389 -161 432 -161 C453 -161 487 -155 510 -132 C511 -129 513 -128 513 -125 C513 -124 513 -123 512 -122 L492 -78 C489 -77 488 -76 487 -76 C483 -76 483 -77 480 -78 C467 -89 453 -90 441 -90 C422 -90 419 -82 419 -61 C419 -53 424 -11 443 0 L487 0 C500 0 514 9 514 26 L514 113 C514 128 500 140 487 140 L247 140 L247 219 L417 219 C430 219 444 228 444 245 L444 323 C444 338 430 350 417 350 L247 350 L247 428 L487 428 C500 428 514 440 514 455 L514 542 C514 559 500 568 487 568 L126 568 Z " />
<glyph glyph-name="Ecaron" unicode="&#x11a;" horiz-adv-x="584" d="M126 568 C111 568 100 555 100 542 L100 26 C100 13 111 0 126 0 L487 0 C500 0 514 9 514 26 L514 113 C514 128 500 140 487 140 L247 140 L247 219 L417 219 C430 219 444 228 444 245 L444 323 C444 338 430 350 417 350 L247 350 L247 428 L487 428 C500 428 514 440 514 455 L514 542 C514 559 500 568 487 568 L126 568 Z M374 632 C391 632 406 646 411 659 L487 810 C487 823 479 836 462 836 L391 836 C376 836 360 822 355 810 L324 743 L293 810 C288 822 272 836 257 836 L186 836 C169 836 161 823 161 810 L237 659 C242 646 257 632 274 632 L374 632 Z " />
<glyph glyph-name="ecaron" unicode="&#x11b;" horiz-adv-x="584" d="M126 568 C111 568 100 555 100 542 L100 26 C100 13 111 0 126 0 L487 0 C500 0 514 9 514 26 L514 113 C514 128 500 140 487 140 L247 140 L247 219 L417 219 C430 219 444 228 444 245 L444 323 C444 338 430 350 417 350 L247 350 L247 428 L487 428 C500 428 514 440 514 455 L514 542 C514 559 500 568 487 568 L126 568 Z M374 632 C391 632 406 646 411 659 L487 810 C487 823 479 836 462 836 L391 836 C376 836 360 822 355 810 L324 743 L293 810 C288 822 272 836 257 836 L186 836 C169 836 161 823 161 810 L237 659 C242 646 257 632 274 632 L374 632 Z " />
<glyph glyph-name="Gcircumflex" unicode="&#x11c;" horiz-adv-x="626" d="M360 333 C347 333 333 321 333 306 L333 241 C333 224 347 215 360 215 L423 215 L423 173 C388 133 342 117 307 117 C220 117 187 192 187 280 C187 367 220 451 307 451 C354 451 392 448 422 397 C427 388 436 384 447 384 C452 384 456 385 460 387 L525 420 C534 425 538 433 538 444 C538 449 537 453 535 457 C494 542 420 578 307 578 C137 578 40 451 40 280 C40 110 137 -10 307 -10 C347 -10 395 6 432 38 L437 26 C441 14 448 0 463 0 L530 0 C545 0 556 13 556 26 L556 307 C556 320 545 333 530 333 L360 333 Z M257 836 C240 836 225 822 220 809 L144 658 C144 645 152 632 169 632 L240 632 C255 632 271 646 276 658 L307 725 L338 658 C343 646 359 632 374 632 L445 632 C462 632 470 645 470 658 L394 809 C389 822 374 836 357 836 L257 836 Z " />
<glyph glyph-name="gcircumflex" unicode="&#x11d;" horiz-adv-x="626" d="M360 333 C347 333 333 321 333 306 L333 241 C333 224 347 215 360 215 L423 215 L423 173 C388 133 342 117 307 117 C220 117 187 192 187 280 C187 367 220 451 307 451 C354 451 392 448 422 397 C427 388 436 384 447 384 C452 384 456 385 460 387 L525 420 C534 425 538 433 538 444 C538 449 537 453 535 457 C494 542 420 578 307 578 C137 578 40 451 40 280 C40 110 137 -10 307 -10 C347 -10 395 6 432 38 L437 26 C441 14 448 0 463 0 L530 0 C545 0 556 13 556 26 L556 307 C556 320 545 333 530 333 L360 333 Z M257 836 C240 836 225 822 220 809 L144 658 C144 645 152 632 169 632 L240 632 C255 632 271 646 276 658 L307 725 L338 658 C343 646 359 632 374 632 L445 632 C462 632 470 645 470 658 L394 809 C389 822 374 836 357 836 L257 836 Z " />
<glyph glyph-name="Gbreve" unicode="&#x11e;" horiz-adv-x="626" d="M360 333 C347 333 333 321 333 306 L333 241 C333 224 347 215 360 215 L423 215 L423 173 C388 133 342 117 307 117 C220 117 187 192 187 280 C187 367 220 451 307 451 C354 451 392 448 422 397 C427 388 436 384 447 384 C452 384 456 385 460 387 L525 420 C534 425 538 433 538 444 C538 449 537 453 535 457 C494 542 420 578 307 578 C137 578 40 451 40 280 C40 110 137 -10 307 -10 C347 -10 395 6 432 38 L437 26 C441 14 448 0 463 0 L530 0 C545 0 556 13 556 26 L556 307 C556 320 545 333 530 333 L360 333 Z M308 632 C441 632 472 703 472 786 L472 791 C472 802 464 811 453 811 L382 811 C369 811 363 802 363 791 L363 786 C363 749 359 723 309 723 C259 723 255 749 255 786 L255 791 C255 802 249 811 236 811 L165 811 C154 811 146 802 146 791 L146 786 C146 703 177 632 308 632 L308 632 Z " />
<glyph glyph-name="gbreve" unicode="&#x11f;" horiz-adv-x="626" d="M360 333 C347 333 333 321 333 306 L333 241 C333 224 347 215 360 215 L423 215 L423 173 C388 133 342 117 307 117 C220 117 187 192 187 280 C187 367 220 451 307 451 C354 451 392 448 422 397 C427 388 436 384 447 384 C452 384 456 385 460 387 L525 420 C534 425 538 433 538 444 C538 449 537 453 535 457 C494 542 420 578 307 578 C137 578 40 451 40 280 C40 110 137 -10 307 -10 C347 -10 395 6 432 38 L437 26 C441 14 448 0 463 0 L530 0 C545 0 556 13 556 26 L556 307 C556 320 545 333 530 333 L360 333 Z M308 632 C441 632 472 703 472 786 L472 791 C472 802 464 811 453 811 L382 811 C369 811 363 802 363 791 L363 786 C363 749 359 723 309 723 C259 723 255 749 255 786 L255 791 C255 802 249 811 236 811 L165 811 C154 811 146 802 146 791 L146 786 C146 703 177 632 308 632 L308 632 Z " />
<glyph glyph-name="Gdotaccent" unicode="&#x120;" horiz-adv-x="626" d="M360 333 C347 333 333 321 333 306 L333 241 C333 224 347 215 360 215 L423 215 L423 173 C388 133 342 117 307 117 C220 117 187 192 187 280 C187 367 220 451 307 451 C354 451 392 448 422 397 C427 388 436 384 447 384 C452 384 456 385 460 387 L525 420 C534 425 538 433 538 444 C538 449 537 453 535 457 C494 542 420 578 307 578 C137 578 40 451 40 280 C40 110 137 -10 307 -10 C347 -10 395 6 432 38 L437 26 C441 14 448 0 463 0 L530 0 C545 0 556 13 556 26 L556 307 C556 320 545 333 530 333 L360 333 Z M233 706 C233 665 266 632 307 632 C348 632 381 665 381 706 C381 747 348 780 307 780 C266 780 233 747 233 706 L233 706 Z " />
<glyph glyph-name="gdotaccent" unicode="&#x121;" horiz-adv-x="626" d="M360 333 C347 333 333 321 333 306 L333 241 C333 224 347 215 360 215 L423 215 L423 173 C388 133 342 117 307 117 C220 117 187 192 187 280 C187 367 220 451 307 451 C354 451 392 448 422 397 C427 388 436 384 447 384 C452 384 456 385 460 387 L525 420 C534 425 538 433 538 444 C538 449 537 453 535 457 C494 542 420 578 307 578 C137 578 40 451 40 280 C40 110 137 -10 307 -10 C347 -10 395 6 432 38 L437 26 C441 14 448 0 463 0 L530 0 C545 0 556 13 556 26 L556 307 C556 320 545 333 530 333 L360 333 Z M233 706 C233 665 266 632 307 632 C348 632 381 665 381 706 C381 747 348 780 307 780 C266 780 233 747 233 706 L233 706 Z " />
<glyph glyph-name="uni0122" unicode="&#x122;" horiz-adv-x="626" d="M360 333 C347 333 333 321 333 306 L333 241 C333 224 347 215 360 215 L423 215 L423 173 C388 133 342 117 307 117 C220 117 187 192 187 280 C187 367 220 451 307 451 C354 451 392 448 422 397 C427 388 436 384 447 384 C452 384 456 385 460 387 L525 420 C534 425 538 433 538 444 C538 449 537 453 535 457 C494 542 420 578 307 578 C137 578 40 451 40 280 C40 110 137 -10 307 -10 C347 -10 395 6 432 38 L437 26 C441 14 448 0 463 0 L530 0 C545 0 556 13 556 26 L556 307 C556 320 545 333 530 333 L360 333 Z M228 -133 C228 -158 238 -178 258 -195 L244 -242 C243 -246 242 -249 242 -251 C242 -259 245 -265 252 -270 L290 -282 C294 -284 298 -285 301 -285 C309 -285 315 -282 318 -275 C340 -237 386 -173 386 -133 C385 -89 350 -54 307 -54 C263 -54 228 -89 228 -133 L228 -133 Z " />
<glyph glyph-name="uni0123" unicode="&#x123;" horiz-adv-x="626" d="M360 333 C347 333 333 321 333 306 L333 241 C333 224 347 215 360 215 L423 215 L423 173 C388 133 342 117 307 117 C220 117 187 192 187 280 C187 367 220 451 307 451 C354 451 392 448 422 397 C427 388 436 384 447 384 C452 384 456 385 460 387 L525 420 C534 425 538 433 538 444 C538 449 537 453 535 457 C494 542 420 578 307 578 C137 578 40 451 40 280 C40 110 137 -10 307 -10 C347 -10 395 6 432 38 L437 26 C441 14 448 0 463 0 L530 0 C545 0 556 13 556 26 L556 307 C556 320 545 333 530 333 L360 333 Z M320 799 C303 799 292 785 287 772 L243 658 C243 645 251 632 268 632 L349 632 C364 632 382 646 387 658 L431 772 C431 787 420 799 405 799 L320 799 Z " />
<glyph glyph-name="Hcircumflex" unicode="&#x124;" horiz-adv-x="652" d="M431 568 C416 568 405 556 405 541 L405 337 L247 337 L247 541 C247 556 239 568 222 568 L126 568 C111 568 100 556 100 541 L100 27 C100 14 111 1 126 1 L222 1 C239 1 247 14 247 27 L247 202 L405 202 L405 27 C405 14 416 1 431 1 L527 1 C544 1 552 14 552 27 L552 541 C552 556 544 568 527 568 L431 568 Z M276 836 C259 836 244 822 239 809 L163 658 C163 645 171 632 188 632 L259 632 C274 632 290 646 295 658 L326 725 L357 658 C362 646 378 632 393 632 L464 632 C481 632 489 645 489 658 L413 809 C408 822 393 836 376 836 L276 836 Z " />
<glyph glyph-name="hcircumflex" unicode="&#x125;" horiz-adv-x="652" d="M431 568 C416 568 405 556 405 541 L405 337 L247 337 L247 541 C247 556 239 568 222 568 L126 568 C111 568 100 556 100 541 L100 27 C100 14 111 1 126 1 L222 1 C239 1 247 14 247 27 L247 202 L405 202 L405 27 C405 14 416 1 431 1 L527 1 C544 1 552 14 552 27 L552 541 C552 556 544 568 527 568 L431 568 Z M276 836 C259 836 244 822 239 809 L163 658 C163 645 171 632 188 632 L259 632 C274 632 290 646 295 658 L326 725 L357 658 C362 646 378 632 393 632 L464 632 C481 632 489 645 489 658 L413 809 C408 822 393 836 376 836 L276 836 Z " />
<glyph glyph-name="Hbar" unicode="&#x126;" horiz-adv-x="718" d="M637 202 C650 202 663 211 663 227 L663 311 C663 324 650 337 637 337 L585 337 L585 377 L637 377 C650 377 663 386 663 402 L663 486 C663 499 650 512 637 512 L585 512 L585 541 C585 556 577 568 560 568 L464 568 C449 568 438 556 438 541 L438 512 L280 512 L280 541 C280 556 272 568 255 568 L159 568 C144 568 133 556 133 541 L133 512 L80 512 C68 512 55 499 55 486 L55 402 C55 386 68 377 80 377 L133 377 L133 337 L80 337 C68 337 55 324 55 311 L55 227 C55 211 68 202 80 202 L133 202 L133 27 C133 14 144 1 159 1 L255 1 C272 1 280 14 280 27 L280 202 L438 202 L438 27 C438 14 449 1 464 1 L560 1 C577 1 585 14 585 27 L585 202 L637 202 Z M280 337 L280 377 L438 377 L438 337 L280 337 Z " />
<glyph glyph-name="hbar" unicode="&#x127;" horiz-adv-x="718" d="M637 202 C650 202 663 211 663 227 L663 311 C663 324 650 337 637 337 L585 337 L585 377 L637 377 C650 377 663 386 663 402 L663 486 C663 499 650 512 637 512 L585 512 L585 541 C585 556 577 568 560 568 L464 568 C449 568 438 556 438 541 L438 512 L280 512 L280 541 C280 556 272 568 255 568 L159 568 C144 568 133 556 133 541 L133 512 L80 512 C68 512 55 499 55 486 L55 402 C55 386 68 377 80 377 L133 377 L133 337 L80 337 C68 337 55 324 55 311 L55 227 C55 211 68 202 80 202 L133 202 L133 27 C133 14 144 1 159 1 L255 1 C272 1 280 14 280 27 L280 202 L438 202 L438 27 C438 14 449 1 464 1 L560 1 C577 1 585 14 585 27 L585 202 L637 202 Z M280 337 L280 377 L438 377 L438 337 L280 337 Z " />
<glyph glyph-name="Itilde" unicode="&#x128;" horiz-adv-x="347" d="M125 568 C108 568 100 556 100 541 L100 26 C100 13 108 0 125 0 L221 0 C236 0 247 13 247 26 L247 541 C247 556 236 568 221 568 L125 568 Z M322 783 C317 788 310 795 299 795 C296 795 295 795 288 791 C269 778 255 772 232 772 C192 772 159 811 105 811 C66 811 35 793 4 769 C-3 764 -7 757 -7 749 C-7 745 -6 741 -5 736 L23 664 C28 656 35 652 44 652 C48 652 50 651 57 654 C73 667 85 671 105 671 C151 671 185 632 230 632 C271 632 309 651 340 678 C347 681 352 692 352 703 L322 783 Z " />
<glyph glyph-name="itilde" unicode="&#x129;" horiz-adv-x="347" d="M125 568 C108 568 100 556 100 541 L100 26 C100 13 108 0 125 0 L221 0 C236 0 247 13 247 26 L247 541 C247 556 236 568 221 568 L125 568 Z M322 783 C317 788 310 795 299 795 C296 795 295 795 288 791 C269 778 255 772 232 772 C192 772 159 811 105 811 C66 811 35 793 4 769 C-3 764 -7 757 -7 749 C-7 745 -6 741 -5 736 L23 664 C28 656 35 652 44 652 C48 652 50 651 57 654 C73 667 85 671 105 671 C151 671 185 632 230 632 C271 632 309 651 340 678 C347 681 352 692 352 703 L322 783 Z " />
<glyph glyph-name="Imacron" unicode="&#x12a;" horiz-adv-x="347" d="M125 568 C108 568 100 556 100 541 L100 26 C100 13 108 0 125 0 L221 0 C236 0 247 13 247 26 L247 541 C247 556 236 568 221 568 L125 568 Z M311 632 C324 632 338 641 338 658 L338 745 C338 760 324 772 311 772 L34 772 C21 772 8 760 8 745 L8 658 C8 641 21 632 34 632 L311 632 Z " />
<glyph glyph-name="imacron" unicode="&#x12b;" horiz-adv-x="347" d="M125 568 C108 568 100 556 100 541 L100 26 C100 13 108 0 125 0 L221 0 C236 0 247 13 247 26 L247 541 C247 556 236 568 221 568 L125 568 Z M311 632 C324 632 338 641 338 658 L338 745 C338 760 324 772 311 772 L34 772 C21 772 8 760 8 745 L8 658 C8 641 21 632 34 632 L311 632 Z " />
<glyph glyph-name="Iogonek" unicode="&#x12e;" horiz-adv-x="347" d="M247 541 C247 556 236 568 221 568 L125 568 C108 568 100 556 100 541 L100 48 C59 36 43 2 43 -34 C43 -88 97 -125 142 -125 C181 -125 201 -118 234 -91 C237 -88 239 -84 239 -81 C239 -78 238 -75 236 -71 L218 -40 C215 -37 212 -35 204 -35 C197 -36 181 -54 153 -54 C137 -54 126 -36 126 -28 C126 -9 135 -4 148 -1 L164 0 L221 0 C234 0 247 13 247 26 L247 541 Z " />
<glyph glyph-name="iogonek" unicode="&#x12f;" horiz-adv-x="347" d="M247 541 C247 556 236 568 221 568 L125 568 C108 568 100 556 100 541 L100 48 C59 36 43 2 43 -34 C43 -88 97 -125 142 -125 C181 -125 201 -118 234 -91 C237 -88 239 -84 239 -81 C239 -78 238 -75 236 -71 L218 -40 C215 -37 212 -35 204 -35 C197 -36 181 -54 153 -54 C137 -54 126 -36 126 -28 C126 -9 135 -4 148 -1 L164 0 L221 0 C234 0 247 13 247 26 L247 541 Z " />
<glyph glyph-name="Idotaccent" unicode="&#x130;" horiz-adv-x="347" d="M222 -10 C239 -10 247 2 247 17 L247 542 C247 555 239 568 222 568 L126 568 C111 568 100 555 100 542 L100 17 C100 2 111 -10 126 -10 L222 -10 Z M91 711 C91 667 126 632 170 632 C214 632 249 667 249 711 C249 755 214 790 170 790 C126 790 91 755 91 711 L91 711 Z " />
<glyph glyph-name="dotlessi" unicode="&#x131;" horiz-adv-x="347" d="M222 0 C239 0 247 12 247 27 L247 358 C247 371 239 384 222 384 L126 384 C111 384 100 371 100 358 L100 27 C100 12 111 0 126 0 L222 0 Z " />
<glyph glyph-name="Jcircumflex" unicode="&#x134;" horiz-adv-x="577" d="M350 428 L350 280 C350 192 344 117 264 117 C219 117 198 140 187 176 C183 191 174 203 157 203 L66 203 C51 203 40 192 40 177 C40 61 132 -10 264 -10 C434 -10 497 110 497 280 L497 541 C497 556 489 568 472 568 L232 568 C219 568 206 556 206 541 L206 454 C206 437 219 428 232 428 L350 428 Z M283 836 C266 836 251 822 246 809 L170 658 C170 645 178 632 195 632 L266 632 C281 632 297 646 302 658 L333 725 L364 658 C369 646 385 632 400 632 L471 632 C488 632 496 645 496 658 L420 809 C415 822 400 836 383 836 L283 836 Z " />
<glyph glyph-name="jcircumflex" unicode="&#x135;" horiz-adv-x="577" d="M350 428 L350 280 C350 192 344 117 264 117 C219 117 198 140 187 176 C183 191 174 203 157 203 L66 203 C51 203 40 192 40 177 C40 61 132 -10 264 -10 C434 -10 497 110 497 280 L497 541 C497 556 489 568 472 568 L232 568 C219 568 206 556 206 541 L206 454 C206 437 219 428 232 428 L350 428 Z M283 836 C266 836 251 822 246 809 L170 658 C170 645 178 632 195 632 L266 632 C281 632 297 646 302 658 L333 725 L364 658 C369 646 385 632 400 632 L471 632 C488 632 496 645 496 658 L420 809 C415 822 400 836 383 836 L283 836 Z " />
<glyph glyph-name="uni0136" unicode="&#x136;" horiz-adv-x="636" d="M443 568 C422 568 407 553 399 541 L247 345 L247 541 C247 556 239 568 222 568 L126 568 C111 568 100 556 100 541 L100 26 C100 13 111 0 126 0 L222 0 C239 0 247 13 247 26 L247 125 L339 245 L437 26 C442 14 456 0 471 0 L570 0 C585 0 596 10 596 21 C596 23 596 25 595 26 L439 376 L566 541 C566 556 558 568 541 568 L443 568 Z M256 -133 C256 -158 266 -178 286 -195 L272 -242 C271 -246 270 -249 270 -251 C270 -259 273 -265 280 -270 L318 -282 C322 -284 326 -285 329 -285 C337 -285 343 -282 346 -275 C368 -237 414 -173 414 -133 C413 -89 378 -54 335 -54 C291 -54 256 -89 256 -133 L256 -133 Z " />
<glyph glyph-name="uni0137" unicode="&#x137;" horiz-adv-x="636" d="M443 568 C422 568 407 553 399 541 L247 345 L247 541 C247 556 239 568 222 568 L126 568 C111 568 100 556 100 541 L100 26 C100 13 111 0 126 0 L222 0 C239 0 247 13 247 26 L247 125 L339 245 L437 26 C442 14 456 0 471 0 L570 0 C585 0 596 10 596 21 C596 23 596 25 595 26 L439 376 L566 541 C566 556 558 568 541 568 L443 568 Z M256 -133 C256 -158 266 -178 286 -195 L272 -242 C271 -246 270 -249 270 -251 C270 -259 273 -265 280 -270 L318 -282 C322 -284 326 -285 329 -285 C337 -285 343 -282 346 -275 C368 -237 414 -173 414 -133 C413 -89 378 -54 335 -54 C291 -54 256 -89 256 -133 L256 -133 Z " />
<glyph glyph-name="kgreenlandic" unicode="&#x138;" horiz-adv-x="636" d="M541 568 L443 568 C422 568 407 553 399 541 L247 345 L247 541 C247 556 239 568 222 568 L126 568 C111 568 100 556 100 541 L100 26 C100 13 111 0 126 0 L222 0 C239 0 247 13 247 26 L247 125 L339 245 L437 26 C442 14 456 0 471 0 L570 0 C585 0 596 10 596 21 C596 23 596 25 595 26 L439 376 L566 541 C566 556 558 568 541 568 L541 568 Z " />
<glyph glyph-name="Lacute" unicode="&#x139;" horiz-adv-x="533" d="M456 0 C469 0 483 9 483 26 L483 113 C483 128 469 140 456 140 L247 140 L247 541 C247 556 239 568 222 568 L126 568 C111 568 100 556 100 541 L100 26 C100 13 111 0 126 0 L456 0 Z M180 799 C163 799 152 785 147 772 L103 658 C103 645 111 632 128 632 L209 632 C224 632 242 646 247 658 L291 772 C291 787 280 799 265 799 L180 799 Z " />
<glyph glyph-name="lacute" unicode="&#x13a;" horiz-adv-x="347" d="M125 568 C108 568 100 556 100 541 L100 26 C100 13 108 0 125 0 L221 0 C236 0 247 13 247 26 L247 541 C247 556 236 568 221 568 L125 568 Z M185 799 C168 799 157 785 152 772 L108 658 C108 645 116 632 133 632 L214 632 C229 632 247 646 252 658 L296 772 C296 787 285 799 270 799 L185 799 Z " />
<glyph glyph-name="uni013B" unicode="&#x13b;" horiz-adv-x="533" d="M456 0 C469 0 483 9 483 26 L483 113 C483 128 469 140 456 140 L247 140 L247 541 C247 556 239 568 222 568 L126 568 C111 568 100 556 100 541 L100 26 C100 13 111 0 126 0 L456 0 Z M212 -133 C212 -158 222 -178 242 -195 L228 -242 C227 -246 226 -249 226 -251 C226 -259 229 -265 236 -270 L274 -282 C278 -284 282 -285 285 -285 C293 -285 299 -282 302 -275 C324 -237 370 -173 370 -133 C369 -89 334 -54 291 -54 C247 -54 212 -89 212 -133 L212 -133 Z " />
<glyph glyph-name="uni013C" unicode="&#x13c;" horiz-adv-x="347" d="M125 568 C108 568 100 556 100 541 L100 26 C100 13 108 0 125 0 L221 0 C236 0 247 13 247 26 L247 541 C247 556 236 568 221 568 L125 568 Z M94 -133 C94 -158 104 -178 124 -195 L110 -242 C109 -246 108 -249 108 -251 C108 -259 111 -265 118 -270 L156 -282 C160 -284 164 -285 167 -285 C175 -285 181 -282 184 -275 C206 -237 252 -173 252 -133 C251 -89 216 -54 173 -54 C129 -54 94 -89 94 -133 L94 -133 Z " />
<glyph glyph-name="Lcaron" unicode="&#x13d;" horiz-adv-x="533" d="M456 0 C469 0 483 9 483 26 L483 113 C483 128 469 140 456 140 L247 140 L247 541 C247 556 239 568 222 568 L126 568 C111 568 100 556 100 541 L100 26 C100 13 111 0 126 0 L456 0 Z M318 489 C318 464 328 444 348 427 L323 354 C322 350 321 347 321 345 C321 337 324 331 331 326 L369 314 C373 312 377 311 380 311 C388 311 394 314 397 321 C469 444 476 457 476 489 C475 533 440 568 397 568 C353 568 318 533 318 489 L318 489 Z " />
<glyph glyph-name="lcaron" unicode="&#x13e;" horiz-adv-x="485" d="M126 568 C111 568 100 556 100 541 L100 26 C100 13 111 0 126 0 L222 0 C239 0 247 13 247 26 L247 541 C247 556 239 568 222 568 L126 568 Z M307 489 C307 464 317 444 337 427 L312 354 C311 350 310 347 310 345 C310 337 313 331 320 326 L358 314 C362 312 366 311 369 311 C377 311 383 314 386 321 C458 444 465 457 465 489 C464 533 429 568 386 568 C342 568 307 533 307 489 L307 489 Z " />
<glyph glyph-name="Lslash" unicode="&#x141;" horiz-adv-x="585" d="M508 0 C521 0 535 9 535 26 L535 113 C535 128 521 140 508 140 L299 140 L299 231 L363 247 C376 250 390 256 390 273 L390 360 C390 375 376 387 363 387 L299 371 L299 541 C299 556 291 568 274 568 L178 568 C163 568 152 556 152 541 L152 336 L86 321 C73 318 60 309 60 294 L60 207 C60 190 73 181 86 181 L152 196 L152 26 C152 13 163 0 178 0 L508 0 Z " />
<glyph glyph-name="lslash" unicode="&#x142;" horiz-adv-x="450" d="M363 247 C376 250 390 256 390 273 L390 360 C390 375 376 387 363 387 L299 371 L299 541 C299 556 291 568 274 568 L178 568 C163 568 152 556 152 541 L152 336 L86 321 C73 318 60 309 60 294 L60 207 C60 190 73 181 86 181 L152 196 L152 26 C152 13 163 0 178 0 L274 0 C291 0 299 13 299 26 L299 231 L363 247 Z " />
<glyph glyph-name="Nacute" unicode="&#x143;" horiz-adv-x="661" d="M440 568 C423 568 414 556 414 541 L414 285 C330 420 288 486 266 521 C253 541 246 552 243 555 C239 564 226 568 218 568 L126 568 C113 568 100 556 100 541 L100 26 C100 13 113 0 126 0 L222 0 C239 0 247 13 247 26 L247 286 L420 13 C427 2 437 0 445 0 L535 0 C548 0 561 13 561 26 L561 541 C561 556 548 568 535 568 L440 568 Z M334 799 C317 799 306 785 301 772 L257 658 C257 645 265 632 282 632 L363 632 C378 632 396 646 401 658 L445 772 C445 787 434 799 419 799 L334 799 Z " />
<glyph glyph-name="nacute" unicode="&#x144;" horiz-adv-x="661" d="M440 568 C423 568 414 556 414 541 L414 285 C330 420 288 486 266 521 C253 541 246 552 243 555 C239 564 226 568 218 568 L126 568 C113 568 100 556 100 541 L100 26 C100 13 113 0 126 0 L222 0 C239 0 247 13 247 26 L247 286 L420 13 C427 2 437 0 445 0 L535 0 C548 0 561 13 561 26 L561 541 C561 556 548 568 535 568 L440 568 Z M334 799 C317 799 306 785 301 772 L257 658 C257 645 265 632 282 632 L363 632 C378 632 396 646 401 658 L445 772 C445 787 434 799 419 799 L334 799 Z " />
<glyph glyph-name="uni0145" unicode="&#x145;" horiz-adv-x="661" d="M440 568 C423 568 414 556 414 541 L414 285 C330 420 288 486 266 521 C253 541 246 552 243 555 C239 564 226 568 218 568 L126 568 C113 568 100 556 100 541 L100 26 C100 13 113 0 126 0 L222 0 C239 0 247 13 247 26 L247 286 L420 13 C427 2 437 0 445 0 L535 0 C548 0 561 13 561 26 L561 541 C561 556 548 568 535 568 L440 568 Z M267 -133 C267 -158 277 -178 297 -195 L283 -242 C282 -246 281 -249 281 -251 C281 -259 284 -265 291 -270 L329 -282 C333 -284 337 -285 340 -285 C348 -285 354 -282 357 -275 C379 -237 425 -173 425 -133 C424 -89 389 -54 346 -54 C302 -54 267 -89 267 -133 L267 -133 Z " />
<glyph glyph-name="uni0146" unicode="&#x146;" horiz-adv-x="661" d="M440 568 C423 568 414 556 414 541 L414 285 C330 420 288 486 266 521 C253 541 246 552 243 555 C239 564 226 568 218 568 L126 568 C113 568 100 556 100 541 L100 26 C100 13 113 0 126 0 L222 0 C239 0 247 13 247 26 L247 286 L420 13 C427 2 437 0 445 0 L535 0 C548 0 561 13 561 26 L561 541 C561 556 548 568 535 568 L440 568 Z M267 -133 C267 -158 277 -178 297 -195 L283 -242 C282 -246 281 -249 281 -251 C281 -259 284 -265 291 -270 L329 -282 C333 -284 337 -285 340 -285 C348 -285 354 -282 357 -275 C379 -237 425 -173 425 -133 C424 -89 389 -54 346 -54 C302 -54 267 -89 267 -133 L267 -133 Z " />
<glyph glyph-name="Ncaron" unicode="&#x147;" horiz-adv-x="661" d="M440 568 C423 568 414 556 414 541 L414 285 C330 420 288 486 266 521 C253 541 246 552 243 555 C239 564 226 568 218 568 L126 568 C113 568 100 556 100 541 L100 26 C100 13 113 0 126 0 L222 0 C239 0 247 13 247 26 L247 286 L420 13 C427 2 437 0 445 0 L535 0 C548 0 561 13 561 26 L561 541 C561 556 548 568 535 568 L440 568 Z M374 632 C391 632 406 646 411 659 L487 810 C487 823 479 836 462 836 L391 836 C376 836 360 822 355 810 L324 743 L293 810 C288 822 272 836 257 836 L186 836 C169 836 161 823 161 810 L237 659 C242 646 257 632 274 632 L374 632 Z " />
<glyph glyph-name="ncaron" unicode="&#x148;" horiz-adv-x="661" d="M440 568 C423 568 414 556 414 541 L414 285 C330 420 288 486 266 521 C253 541 246 552 243 555 C239 564 226 568 218 568 L126 568 C113 568 100 556 100 541 L100 26 C100 13 113 0 126 0 L222 0 C239 0 247 13 247 26 L247 286 L420 13 C427 2 437 0 445 0 L535 0 C548 0 561 13 561 26 L561 541 C561 556 548 568 535 568 L440 568 Z M374 632 C391 632 406 646 411 659 L487 810 C487 823 479 836 462 836 L391 836 C376 836 360 822 355 810 L324 743 L293 810 C288 822 272 836 257 836 L186 836 C169 836 161 823 161 810 L237 659 C242 646 257 632 274 632 L374 632 Z " />
<glyph glyph-name="Eng" unicode="&#x14a;" horiz-adv-x="661" d="M561 541 C561 556 548 568 535 568 L440 568 C423 568 414 556 414 541 L414 285 C330 420 288 486 266 521 C253 541 246 552 243 555 C239 564 226 568 218 568 L126 568 C113 568 100 556 100 541 L100 26 C100 13 113 0 126 0 L222 0 C239 0 247 13 247 26 L247 286 L414 22 L414 -10 C414 -109 408 -140 352 -140 C321 -140 306 -131 287 -111 C276 -99 276 -93 252 -93 L181 -93 C166 -93 155 -104 155 -119 C155 -235 270 -267 350 -267 C521 -267 561 -181 561 -10 L561 541 Z " />
<glyph glyph-name="eng" unicode="&#x14b;" horiz-adv-x="661" d="M561 541 C561 556 548 568 535 568 L440 568 C423 568 414 556 414 541 L414 285 C330 420 288 486 266 521 C253 541 246 552 243 555 C239 564 226 568 218 568 L126 568 C113 568 100 556 100 541 L100 26 C100 13 113 0 126 0 L222 0 C239 0 247 13 247 26 L247 286 L414 22 L414 -10 C414 -109 408 -140 352 -140 C321 -140 306 -131 287 -111 C276 -99 276 -93 252 -93 L181 -93 C166 -93 155 -104 155 -119 C155 -235 270 -267 350 -267 C521 -267 561 -181 561 -10 L561 541 Z " />
<glyph glyph-name="Omacron" unicode="&#x14c;" horiz-adv-x="633" d="M317 -10 C488 -10 583 110 583 280 C583 451 488 578 317 578 C147 578 50 451 50 280 C50 110 147 -10 317 -10 L317 -10 Z M317 124 C230 124 197 192 197 280 C197 367 230 444 317 444 C404 444 436 367 436 280 C436 192 404 124 317 124 L317 124 Z M459 632 C472 632 486 641 486 658 L486 732 C486 747 472 759 459 759 L182 759 C169 759 156 747 156 732 L156 658 C156 641 169 632 182 632 L459 632 Z " />
<glyph glyph-name="omacron" unicode="&#x14d;" horiz-adv-x="633" d="M317 -10 C488 -10 583 110 583 280 C583 451 488 578 317 578 C147 578 50 451 50 280 C50 110 147 -10 317 -10 L317 -10 Z M317 124 C230 124 197 192 197 280 C197 367 230 444 317 444 C404 444 436 367 436 280 C436 192 404 124 317 124 L317 124 Z M459 632 C472 632 486 641 486 658 L486 732 C486 747 472 759 459 759 L182 759 C169 759 156 747 156 732 L156 658 C156 641 169 632 182 632 L459 632 Z " />
<glyph glyph-name="Ohungarumlaut" unicode="&#x150;" horiz-adv-x="633" d="M317 -10 C488 -10 583 110 583 280 C583 451 488 578 317 578 C147 578 50 451 50 280 C50 110 147 -10 317 -10 L317 -10 Z M317 124 C230 124 197 192 197 280 C197 367 230 444 317 444 C404 444 436 367 436 280 C436 192 404 124 317 124 L317 124 Z M233 799 C216 799 205 785 200 772 L156 658 C156 645 164 632 181 632 L248 632 C263 632 281 646 286 658 L330 772 C330 787 319 799 304 799 L233 799 Z M410 799 C393 799 382 785 377 772 L333 658 C333 645 341 632 358 632 L425 632 C440 632 458 646 463 658 L507 772 C507 787 496 799 481 799 L410 799 Z " />
<glyph glyph-name="ohungarumlaut" unicode="&#x151;" horiz-adv-x="633" d="M317 -10 C488 -10 583 110 583 280 C583 451 488 578 317 578 C147 578 50 451 50 280 C50 110 147 -10 317 -10 L317 -10 Z M317 124 C230 124 197 192 197 280 C197 367 230 444 317 444 C404 444 436 367 436 280 C436 192 404 124 317 124 L317 124 Z M233 799 C216 799 205 785 200 772 L156 658 C156 645 164 632 181 632 L248 632 C263 632 281 646 286 658 L330 772 C330 787 319 799 304 799 L233 799 Z M410 799 C393 799 382 785 377 772 L333 658 C333 645 341 632 358 632 L425 632 C440 632 458 646 463 658 L507 772 C507 787 496 799 481 799 L410 799 Z " />
<glyph glyph-name="OE" unicode="&#x152;" horiz-adv-x="892" d="M434 568 L387 568 C362 575 336 578 307 578 C137 578 40 451 40 280 C40 110 137 -10 307 -10 C335 -10 362 -7 386 0 L795 0 C808 0 822 9 822 26 L822 113 C822 128 808 140 795 140 L555 140 L555 219 L725 219 C738 219 752 228 752 245 L752 323 C752 338 738 350 725 350 L555 350 L555 428 L795 428 C808 428 822 440 822 455 L822 542 C822 559 808 568 795 568 L434 568 Z M307 451 C344 451 380 438 408 407 L408 160 C380 129 344 117 307 117 C220 117 187 192 187 280 C187 367 220 451 307 451 L307 451 Z " />
<glyph glyph-name="oe" unicode="&#x153;" horiz-adv-x="892" d="M434 568 L387 568 C362 575 336 578 307 578 C137 578 40 451 40 280 C40 110 137 -10 307 -10 C335 -10 362 -7 386 0 L795 0 C808 0 822 9 822 26 L822 113 C822 128 808 140 795 140 L555 140 L555 219 L725 219 C738 219 752 228 752 245 L752 323 C752 338 738 350 725 350 L555 350 L555 428 L795 428 C808 428 822 440 822 455 L822 542 C822 559 808 568 795 568 L434 568 Z M307 451 C344 451 380 438 408 407 L408 160 C380 129 344 117 307 117 C220 117 187 192 187 280 C187 367 220 451 307 451 L307 451 Z " />
<glyph glyph-name="Racute" unicode="&#x154;" horiz-adv-x="596" d="M126 568 C111 568 100 556 100 541 L100 26 C100 13 111 0 126 0 L222 0 C239 0 247 13 247 26 L247 133 L318 133 L369 26 C376 14 384 0 399 0 L492 0 C505 0 518 13 518 26 L450 170 C515 210 546 276 546 347 L546 355 C546 464 471 568 300 568 L126 568 Z M300 434 C388 434 399 395 399 355 L399 347 C399 307 388 267 300 267 L247 267 L247 434 L300 434 Z M311 791 C294 791 283 777 278 764 L234 650 C234 637 242 624 259 624 L340 624 C355 624 373 638 378 650 L422 764 C422 779 411 791 396 791 L311 791 Z " />
<glyph glyph-name="racute" unicode="&#x155;" horiz-adv-x="596" d="M126 568 C111 568 100 556 100 541 L100 26 C100 13 111 0 126 0 L222 0 C239 0 247 13 247 26 L247 133 L318 133 L369 26 C376 14 384 0 399 0 L492 0 C505 0 518 13 518 26 L450 170 C515 210 546 276 546 347 L546 355 C546 464 471 568 300 568 L126 568 Z M300 434 C388 434 399 395 399 355 L399 347 C399 307 388 267 300 267 L247 267 L247 434 L300 434 Z M311 799 C294 799 283 785 278 772 L234 658 C234 645 242 632 259 632 L340 632 C355 632 373 646 378 658 L422 772 C422 787 411 799 396 799 L311 799 Z " />
<glyph glyph-name="uni0156" unicode="&#x156;" horiz-adv-x="596" d="M126 568 C111 568 100 556 100 541 L100 26 C100 13 111 0 126 0 L222 0 C239 0 247 13 247 26 L247 133 L318 133 L369 26 C376 14 384 0 399 0 L492 0 C505 0 518 13 518 26 L450 170 C515 210 546 276 546 347 L546 355 C546 464 471 568 300 568 L126 568 Z M300 434 C388 434 399 395 399 355 L399 347 C399 307 388 267 300 267 L247 267 L247 434 L300 434 Z M231 -133 C231 -158 241 -178 261 -195 L247 -242 C246 -246 245 -249 245 -251 C245 -259 248 -265 255 -270 L293 -282 C297 -284 301 -285 304 -285 C312 -285 318 -282 321 -275 C343 -237 389 -173 389 -133 C388 -89 353 -54 310 -54 C266 -54 231 -89 231 -133 L231 -133 Z " />
<glyph glyph-name="uni0157" unicode="&#x157;" horiz-adv-x="596" d="M126 568 C111 568 100 556 100 541 L100 26 C100 13 111 0 126 0 L222 0 C239 0 247 13 247 26 L247 133 L318 133 L369 26 C376 14 384 0 399 0 L492 0 C505 0 518 13 518 26 L450 170 C515 210 546 276 546 347 L546 355 C546 464 471 568 300 568 L126 568 Z M300 434 C388 434 399 395 399 355 L399 347 C399 307 388 267 300 267 L247 267 L247 434 L300 434 Z M231 -133 C231 -158 241 -178 261 -195 L247 -242 C246 -246 245 -249 245 -251 C245 -259 248 -265 255 -270 L293 -282 C297 -284 301 -285 304 -285 C312 -285 318 -282 321 -275 C343 -237 389 -173 389 -133 C388 -89 353 -54 310 -54 C266 -54 231 -89 231 -133 L231 -133 Z " />
<glyph glyph-name="Rcaron" unicode="&#x158;" horiz-adv-x="596" d="M126 568 C111 568 100 556 100 541 L100 26 C100 13 111 0 126 0 L222 0 C239 0 247 13 247 26 L247 133 L318 133 L369 26 C376 14 384 0 399 0 L492 0 C505 0 518 13 518 26 L450 170 C515 210 546 276 546 347 L546 355 C546 464 471 568 300 568 L126 568 Z M300 434 C388 434 399 395 399 355 L399 347 C399 307 388 267 300 267 L247 267 L247 434 L300 434 Z M358 632 C375 632 390 646 395 659 L471 810 C471 823 463 836 446 836 L375 836 C360 836 344 822 339 810 L308 743 L277 810 C272 822 256 836 241 836 L170 836 C153 836 145 823 145 810 L221 659 C226 646 241 632 258 632 L358 632 Z " />
<glyph glyph-name="rcaron" unicode="&#x159;" horiz-adv-x="596" d="M126 568 C111 568 100 556 100 541 L100 26 C100 13 111 0 126 0 L222 0 C239 0 247 13 247 26 L247 133 L318 133 L369 26 C376 14 384 0 399 0 L492 0 C505 0 518 13 518 26 L450 170 C515 210 546 276 546 347 L546 355 C546 464 471 568 300 568 L126 568 Z M300 434 C388 434 399 395 399 355 L399 347 C399 307 388 267 300 267 L247 267 L247 434 L300 434 Z M358 632 C375 632 390 646 395 659 L471 810 C471 823 463 836 446 836 L375 836 C360 836 344 822 339 810 L308 743 L277 810 C272 822 256 836 241 836 L170 836 C153 836 145 823 145 810 L221 659 C226 646 241 632 258 632 L358 632 Z " />
<glyph glyph-name="Sacute" unicode="&#x15a;" horiz-adv-x="573" d="M376 156 C376 120 332 117 295 117 C260 117 220 127 209 163 C205 178 196 190 179 190 L88 190 C73 190 62 179 62 164 C62 48 162 -10 295 -10 C425 -10 523 46 523 163 C523 346 207 341 207 412 C207 435 228 451 271 451 C316 451 351 446 362 410 C366 395 375 383 392 383 L483 383 C498 383 509 394 509 409 C509 525 404 578 271 578 C140 578 60 514 60 410 C60 213 376 237 376 156 L376 156 Z M305 791 C288 791 277 777 272 764 L228 650 C228 637 236 624 253 624 L334 624 C349 624 367 638 372 650 L416 764 C416 779 405 791 390 791 L305 791 Z " />
<glyph glyph-name="sacute" unicode="&#x15b;" horiz-adv-x="573" d="M376 156 C376 120 332 117 295 117 C260 117 220 127 209 163 C205 178 196 190 179 190 L88 190 C73 190 62 179 62 164 C62 48 162 -10 295 -10 C425 -10 523 46 523 163 C523 346 207 341 207 412 C207 435 228 451 271 451 C316 451 351 446 362 410 C366 395 375 383 392 383 L483 383 C498 383 509 394 509 409 C509 525 404 578 271 578 C140 578 60 514 60 410 C60 213 376 237 376 156 L376 156 Z M300 799 C283 799 272 785 267 772 L223 658 C223 645 231 632 248 632 L329 632 C344 632 362 646 367 658 L411 772 C411 787 400 799 385 799 L300 799 Z " />
<glyph glyph-name="Scircumflex" unicode="&#x15c;" horiz-adv-x="573" d="M376 156 C376 120 332 117 295 117 C260 117 220 127 209 163 C205 178 196 190 179 190 L88 190 C73 190 62 179 62 164 C62 48 162 -10 295 -10 C425 -10 523 46 523 163 C523 346 207 341 207 412 C207 435 228 451 271 451 C316 451 351 446 362 410 C366 395 375 383 392 383 L483 383 C498 383 509 394 509 409 C509 525 404 578 271 578 C140 578 60 514 60 410 C60 213 376 237 376 156 L376 156 Z M237 836 C220 836 205 822 200 809 L124 658 C124 645 132 632 149 632 L220 632 C235 632 251 646 256 658 L287 725 L318 658 C323 646 339 632 354 632 L425 632 C442 632 450 645 450 658 L374 809 C369 822 354 836 337 836 L237 836 Z " />
<glyph glyph-name="scircumflex" unicode="&#x15d;" horiz-adv-x="573" d="M376 156 C376 120 332 117 295 117 C260 117 220 127 209 163 C205 178 196 190 179 190 L88 190 C73 190 62 179 62 164 C62 48 162 -10 295 -10 C425 -10 523 46 523 163 C523 346 207 341 207 412 C207 435 228 451 271 451 C316 451 351 446 362 410 C366 395 375 383 392 383 L483 383 C498 383 509 394 509 409 C509 525 404 578 271 578 C140 578 60 514 60 410 C60 213 376 237 376 156 L376 156 Z M237 836 C220 836 205 822 200 809 L124 658 C124 645 132 632 149 632 L220 632 C235 632 251 646 256 658 L287 725 L318 658 C323 646 339 632 354 632 L425 632 C442 632 450 645 450 658 L374 809 C369 822 354 836 337 836 L237 836 Z " />
<glyph glyph-name="Scedilla" unicode="&#x15e;" horiz-adv-x="573" d="M376 156 C376 120 332 117 295 117 C260 117 220 127 209 163 C205 178 196 190 179 190 L88 190 C73 190 62 179 62 164 C62 59 143 3 255 -8 L249 -63 C249 -76 260 -89 275 -89 L291 -90 C306 -92 313 -99 313 -112 C313 -120 308 -129 292 -129 C264 -129 242 -111 235 -110 C227 -110 224 -112 221 -115 L203 -146 C201 -150 200 -153 200 -156 C200 -161 202 -163 205 -166 C238 -193 264 -200 303 -200 C348 -200 396 -172 396 -118 C396 -82 380 -53 339 -41 L342 -7 C448 4 523 61 523 163 C523 346 207 341 207 412 C207 435 228 451 271 451 C316 451 351 446 362 410 C366 395 375 383 392 383 L483 383 C498 383 509 394 509 409 C509 525 404 578 271 578 C140 578 60 514 60 410 C60 213 376 237 376 156 L376 156 Z " />
<glyph glyph-name="scedilla" unicode="&#x15f;" horiz-adv-x="573" d="M376 156 C376 120 332 117 295 117 C260 117 220 127 209 163 C205 178 196 190 179 190 L88 190 C73 190 62 179 62 164 C62 58 145 -1 261 -9 L255 -63 C255 -76 266 -89 281 -89 L297 -90 C312 -92 319 -99 319 -112 C319 -120 314 -129 298 -129 C270 -129 248 -111 241 -110 C233 -110 230 -112 227 -115 L209 -146 C207 -150 206 -153 206 -156 C206 -161 208 -163 211 -166 C244 -193 270 -200 309 -200 C354 -200 402 -172 402 -118 C402 -82 386 -53 345 -41 L348 -7 C451 6 523 62 523 163 C523 346 207 341 207 412 C207 435 228 451 271 451 C316 451 351 446 362 410 C366 395 375 383 392 383 L483 383 C498 383 509 394 509 409 C509 525 404 578 271 578 C140 578 60 514 60 410 C60 213 376 237 376 156 L376 156 Z " />
<glyph glyph-name="Scaron" unicode="&#x160;" horiz-adv-x="573" d="M376 156 C376 120 332 117 295 117 C260 117 220 127 209 163 C205 178 196 190 179 190 L88 190 C73 190 62 179 62 164 C62 48 162 -10 295 -10 C425 -10 523 46 523 163 C523 346 207 341 207 412 C207 435 228 451 271 451 C316 451 351 446 362 410 C366 395 375 383 392 383 L483 383 C498 383 509 394 509 409 C509 525 404 578 271 578 C140 578 60 514 60 410 C60 213 376 237 376 156 L376 156 Z M335 632 C352 632 367 646 372 659 L448 810 C448 823 440 836 423 836 L352 836 C337 836 321 822 316 810 L285 743 L254 810 C249 822 233 836 218 836 L147 836 C130 836 122 823 122 810 L198 659 C203 646 218 632 235 632 L335 632 Z " />
<glyph glyph-name="scaron" unicode="&#x161;" horiz-adv-x="573" d="M376 156 C376 120 332 117 295 117 C260 117 220 127 209 163 C205 178 196 190 179 190 L88 190 C73 190 62 179 62 164 C62 48 162 -10 295 -10 C425 -10 523 46 523 163 C523 346 207 341 207 412 C207 435 228 451 271 451 C316 451 351 446 362 410 C366 395 375 383 392 383 L483 383 C498 383 509 394 509 409 C509 525 404 578 271 578 C140 578 60 514 60 410 C60 213 376 237 376 156 L376 156 Z M335 632 C352 632 367 646 372 659 L448 810 C448 823 440 836 423 836 L352 836 C337 836 321 822 316 810 L285 743 L254 810 C249 822 233 836 218 836 L147 836 C130 836 122 823 122 810 L198 659 C203 646 218 632 235 632 L335 632 Z " />
<glyph glyph-name="uni0162" unicode="&#x162;" horiz-adv-x="526" d="M454 568 L71 568 C58 568 45 556 45 541 L45 454 C45 437 58 428 71 428 L189 428 L189 26 C189 13 202 0 215 0 L272 0 L288 -1 C301 -4 310 -9 310 -28 C310 -36 299 -54 283 -54 C255 -54 239 -36 232 -35 C224 -35 221 -37 218 -40 L200 -71 C198 -75 197 -78 197 -81 C197 -86 199 -88 202 -91 C235 -118 255 -125 294 -125 C339 -125 393 -88 393 -34 C393 2 377 36 336 48 L336 428 L454 428 C467 428 481 437 481 454 L481 541 C481 556 467 568 454 568 L454 568 Z " />
<glyph glyph-name="uni0163" unicode="&#x163;" horiz-adv-x="526" d="M454 568 L71 568 C58 568 45 556 45 541 L45 454 C45 437 58 428 71 428 L189 428 L189 26 C189 13 202 0 215 0 L272 0 L288 -1 C301 -4 310 -9 310 -28 C310 -36 299 -54 283 -54 C255 -54 239 -36 232 -35 C224 -35 221 -37 218 -40 L200 -71 C198 -75 197 -78 197 -81 C197 -86 199 -88 202 -91 C235 -118 255 -125 294 -125 C339 -125 393 -88 393 -34 C393 2 377 36 336 48 L336 428 L454 428 C467 428 481 437 481 454 L481 541 C481 556 467 568 454 568 L454 568 Z " />
<glyph glyph-name="Tcaron" unicode="&#x164;" horiz-adv-x="526" d="M71 568 C58 568 45 556 45 541 L45 454 C45 437 58 428 71 428 L189 428 L189 26 C189 13 202 0 215 0 L311 0 C328 0 336 13 336 26 L336 428 L454 428 C467 428 481 437 481 454 L481 541 C481 556 467 568 454 568 L71 568 Z M312 632 C329 632 344 646 349 659 L425 810 C425 823 417 836 400 836 L329 836 C314 836 298 822 293 810 L262 743 L231 810 C226 822 210 836 195 836 L124 836 C107 836 99 823 99 810 L175 659 C180 646 195 632 212 632 L312 632 Z " />
<glyph glyph-name="tcaron" unicode="&#x165;" horiz-adv-x="526" d="M71 568 C58 568 45 556 45 541 L45 454 C45 437 58 428 71 428 L189 428 L189 26 C189 13 202 0 215 0 L311 0 C328 0 336 13 336 26 L336 428 L454 428 C467 428 481 437 481 454 L481 541 C481 556 467 568 454 568 L71 568 Z M312 632 C329 632 344 646 349 659 L425 810 C425 823 417 836 400 836 L329 836 C314 836 298 822 293 810 L262 743 L231 810 C226 822 210 836 195 836 L124 836 C107 836 99 823 99 810 L175 659 C180 646 195 632 212 632 L312 632 Z " />
<glyph glyph-name="Tbar" unicode="&#x166;" horiz-adv-x="526" d="M401 192 C414 192 428 201 428 218 L428 305 C428 320 414 332 401 332 L336 332 L336 428 L454 428 C467 428 481 437 481 454 L481 541 C481 556 467 568 454 568 L71 568 C58 568 45 556 45 541 L45 454 C45 437 58 428 71 428 L189 428 L189 332 L124 332 C111 332 98 320 98 305 L98 218 C98 201 111 192 124 192 L189 192 L189 26 C189 13 202 0 215 0 L311 0 C328 0 336 13 336 26 L336 192 L401 192 Z " />
<glyph glyph-name="tbar" unicode="&#x167;" horiz-adv-x="526" d="M401 192 C414 192 428 201 428 218 L428 305 C428 320 414 332 401 332 L336 332 L336 428 L454 428 C467 428 481 437 481 454 L481 541 C481 556 467 568 454 568 L71 568 C58 568 45 556 45 541 L45 454 C45 437 58 428 71 428 L189 428 L189 332 L124 332 C111 332 98 320 98 305 L98 218 C98 201 111 192 124 192 L189 192 L189 26 C189 13 202 0 215 0 L311 0 C328 0 336 13 336 26 L336 192 L401 192 Z " />
<glyph glyph-name="Utilde" unicode="&#x168;" horiz-adv-x="640" d="M320 -10 C489 -10 560 86 560 253 L560 541 C560 556 549 568 534 568 L438 568 C421 568 413 556 413 541 L413 253 C413 170 399 117 320 117 C241 117 227 170 227 253 L227 541 C227 556 219 568 202 568 L106 568 C91 568 80 556 80 541 L80 253 C80 87 149 -10 320 -10 L320 -10 Z M470 783 C465 788 458 795 447 795 C444 795 443 795 436 791 C417 778 403 772 380 772 C340 772 307 811 253 811 C214 811 183 793 152 769 C145 764 141 757 141 749 C141 745 142 741 143 736 L171 664 C176 656 183 652 192 652 C196 652 198 651 205 654 C221 667 233 671 253 671 C299 671 333 632 378 632 C419 632 457 651 488 678 C495 681 500 692 500 703 L470 783 Z " />
<glyph glyph-name="utilde" unicode="&#x169;" horiz-adv-x="640" d="M320 -10 C489 -10 560 86 560 253 L560 541 C560 556 549 568 534 568 L438 568 C421 568 413 556 413 541 L413 253 C413 170 399 117 320 117 C241 117 227 170 227 253 L227 541 C227 556 219 568 202 568 L106 568 C91 568 80 556 80 541 L80 253 C80 87 149 -10 320 -10 L320 -10 Z M470 783 C465 788 458 795 447 795 C444 795 443 795 436 791 C417 778 403 772 380 772 C340 772 307 811 253 811 C214 811 183 793 152 769 C145 764 141 757 141 749 C141 745 142 741 143 736 L171 664 C176 656 183 652 192 652 C196 652 198 651 205 654 C221 667 233 671 253 671 C299 671 333 632 378 632 C419 632 457 651 488 678 C495 681 500 692 500 703 L470 783 Z " />
<glyph glyph-name="Umacron" unicode="&#x16a;" horiz-adv-x="640" d="M320 -10 C489 -10 560 86 560 253 L560 541 C560 556 549 568 534 568 L438 568 C421 568 413 556 413 541 L413 253 C413 170 399 117 320 117 C241 117 227 170 227 253 L227 541 C227 556 219 568 202 568 L106 568 C91 568 80 556 80 541 L80 253 C80 87 149 -10 320 -10 L320 -10 Z M459 632 C472 632 486 641 486 658 L486 732 C486 747 472 759 459 759 L182 759 C169 759 156 747 156 732 L156 658 C156 641 169 632 182 632 L459 632 Z " />
<glyph glyph-name="umacron" unicode="&#x16b;" horiz-adv-x="640" d="M320 -10 C489 -10 560 86 560 253 L560 541 C560 556 549 568 534 568 L438 568 C421 568 413 556 413 541 L413 253 C413 170 399 117 320 117 C241 117 227 170 227 253 L227 541 C227 556 219 568 202 568 L106 568 C91 568 80 556 80 541 L80 253 C80 87 149 -10 320 -10 L320 -10 Z M459 632 C472 632 486 641 486 658 L486 732 C486 747 472 759 459 759 L182 759 C169 759 156 747 156 732 L156 658 C156 641 169 632 182 632 L459 632 Z " />
<glyph glyph-name="Ubreve" unicode="&#x16c;" horiz-adv-x="640" d="M320 -10 C489 -10 560 86 560 253 L560 541 C560 556 549 568 534 568 L438 568 C421 568 413 556 413 541 L413 253 C413 170 399 117 320 117 C241 117 227 170 227 253 L227 541 C227 556 219 568 202 568 L106 568 C91 568 80 556 80 541 L80 253 C80 87 149 -10 320 -10 L320 -10 Z M320 632 C453 632 484 703 484 786 L484 791 C484 802 476 811 465 811 L394 811 C381 811 375 802 375 791 L375 786 C375 749 371 723 321 723 C271 723 267 749 267 786 L267 791 C267 802 261 811 248 811 L177 811 C166 811 158 802 158 791 L158 786 C158 703 189 632 320 632 L320 632 Z " />
<glyph glyph-name="ubreve" unicode="&#x16d;" horiz-adv-x="640" d="M320 -10 C489 -10 560 86 560 253 L560 541 C560 556 549 568 534 568 L438 568 C421 568 413 556 413 541 L413 253 C413 170 399 117 320 117 C241 117 227 170 227 253 L227 541 C227 556 219 568 202 568 L106 568 C91 568 80 556 80 541 L80 253 C80 87 149 -10 320 -10 L320 -10 Z M320 632 C453 632 484 703 484 786 L484 791 C484 802 476 811 465 811 L394 811 C381 811 375 802 375 791 L375 786 C375 749 371 723 321 723 C271 723 267 749 267 786 L267 791 C267 802 261 811 248 811 L177 811 C166 811 158 802 158 791 L158 786 C158 703 189 632 320 632 L320 632 Z " />
<glyph glyph-name="Uring" unicode="&#x16e;" horiz-adv-x="640" d="M320 -10 C489 -10 560 86 560 253 L560 541 C560 556 549 568 534 568 L438 568 C421 568 413 556 413 541 L413 253 C413 170 399 117 320 117 C241 117 227 170 227 253 L227 541 C227 556 219 568 202 568 L106 568 C91 568 80 556 80 541 L80 253 C80 87 149 -10 320 -10 L320 -10 Z M321 898 C248 898 188 838 188 765 C188 692 248 632 321 632 C394 632 454 692 454 765 C454 838 394 898 321 898 L321 898 Z M321 729 C302 729 285 746 285 765 C285 784 302 801 321 801 C340 801 357 784 357 765 C357 746 340 729 321 729 L321 729 Z " />
<glyph glyph-name="uring" unicode="&#x16f;" horiz-adv-x="640" d="M320 -10 C489 -10 560 86 560 253 L560 541 C560 556 549 568 534 568 L438 568 C421 568 413 556 413 541 L413 253 C413 170 399 117 320 117 C241 117 227 170 227 253 L227 541 C227 556 219 568 202 568 L106 568 C91 568 80 556 80 541 L80 253 C80 87 149 -10 320 -10 L320 -10 Z M321 898 C248 898 188 838 188 765 C188 692 248 632 321 632 C394 632 454 692 454 765 C454 838 394 898 321 898 L321 898 Z M321 729 C302 729 285 746 285 765 C285 784 302 801 321 801 C340 801 357 784 357 765 C357 746 340 729 321 729 L321 729 Z " />
<glyph glyph-name="Uhungarumlaut" unicode="&#x170;" horiz-adv-x="640" d="M320 -10 C489 -10 560 86 560 253 L560 541 C560 556 549 568 534 568 L438 568 C421 568 413 556 413 541 L413 253 C413 170 399 117 320 117 C241 117 227 170 227 253 L227 541 C227 556 219 568 202 568 L106 568 C91 568 80 556 80 541 L80 253 C80 87 149 -10 320 -10 L320 -10 Z M240 799 C223 799 212 785 207 772 L163 658 C163 645 171 632 188 632 L255 632 C270 632 288 646 293 658 L337 772 C337 787 326 799 311 799 L240 799 Z M417 799 C400 799 389 785 384 772 L340 658 C340 645 348 632 365 632 L432 632 C447 632 465 646 470 658 L514 772 C514 787 503 799 488 799 L417 799 Z " />
<glyph glyph-name="uhungarumlaut" unicode="&#x171;" horiz-adv-x="640" d="M320 -10 C489 -10 560 86 560 253 L560 541 C560 556 549 568 534 568 L438 568 C421 568 413 556 413 541 L413 253 C413 170 399 117 320 117 C241 117 227 170 227 253 L227 541 C227 556 219 568 202 568 L106 568 C91 568 80 556 80 541 L80 253 C80 87 149 -10 320 -10 L320 -10 Z M240 799 C223 799 212 785 207 772 L163 658 C163 645 171 632 188 632 L255 632 C270 632 288 646 293 658 L337 772 C337 787 326 799 311 799 L240 799 Z M417 799 C400 799 389 785 384 772 L340 658 C340 645 348 632 365 632 L432 632 C447 632 465 646 470 658 L514 772 C514 787 503 799 488 799 L417 799 Z " />
<glyph glyph-name="Uogonek" unicode="&#x172;" horiz-adv-x="640" d="M560 253 L560 541 C560 556 549 568 534 568 L438 568 C421 568 413 556 413 541 L413 253 C413 170 399 117 320 117 C241 117 227 170 227 253 L227 541 C227 556 219 568 202 568 L106 568 C91 568 80 556 80 541 L80 253 C80 98 140 4 284 -8 C276 -24 268 -46 268 -77 C268 -131 315 -161 358 -161 C379 -161 413 -155 436 -132 C437 -129 439 -128 439 -125 C439 -124 439 -123 438 -122 L418 -78 C415 -77 414 -76 413 -76 C409 -76 409 -77 406 -78 C393 -89 379 -90 367 -90 C348 -90 345 -82 345 -61 C345 -54 348 -24 360 -8 C501 7 560 100 560 253 L560 253 Z " />
<glyph glyph-name="uogonek" unicode="&#x173;" horiz-adv-x="640" d="M560 253 L560 541 C560 556 549 568 534 568 L438 568 C421 568 413 556 413 541 L413 253 C413 170 399 117 320 117 C241 117 227 170 227 253 L227 541 C227 556 219 568 202 568 L106 568 C91 568 80 556 80 541 L80 253 C80 98 140 4 284 -8 C276 -24 268 -46 268 -77 C268 -131 315 -161 358 -161 C379 -161 413 -155 436 -132 C437 -129 439 -128 439 -125 C439 -124 439 -123 438 -122 L418 -78 C415 -77 414 -76 413 -76 C409 -76 409 -77 406 -78 C393 -89 379 -90 367 -90 C348 -90 345 -82 345 -61 C345 -54 348 -24 360 -8 C501 7 560 100 560 253 L560 253 Z " />
<glyph glyph-name="Ydieresis" unicode="&#x178;" horiz-adv-x="523" d="M262 361 L168 544 C157 567 144 568 125 568 L33 568 C18 568 10 555 10 542 L188 182 L188 26 C188 13 199 0 214 0 L310 0 C327 0 335 13 335 26 L335 182 L513 542 C513 555 505 568 490 568 L398 568 C379 568 366 567 355 544 L262 361 Z M90 704 C90 663 123 630 164 630 C205 630 238 663 238 704 C238 745 205 778 164 778 C123 778 90 745 90 704 L90 704 Z M287 704 C287 663 320 630 361 630 C402 630 435 663 435 704 C435 745 402 778 361 778 C320 778 287 745 287 704 L287 704 Z " />
<glyph glyph-name="Zacute" unicode="&#x179;" horiz-adv-x="576" d="M70 26 C70 9 83 0 96 0 L479 0 C492 0 506 9 506 26 L506 113 C506 128 492 140 479 140 L264 140 L503 440 C505 445 506 449 506 454 L506 541 C506 556 492 568 479 568 L96 568 C83 568 70 556 70 541 L70 454 C70 437 83 428 96 428 L314 428 L81 135 C74 129 70 122 70 113 L70 26 Z M311 799 C294 799 283 785 278 772 L234 658 C234 645 242 632 259 632 L340 632 C355 632 373 646 378 658 L422 772 C422 787 411 799 396 799 L311 799 Z " />
<glyph glyph-name="zacute" unicode="&#x17a;" horiz-adv-x="576" d="M70 26 C70 9 83 0 96 0 L479 0 C492 0 506 9 506 26 L506 113 C506 128 492 140 479 140 L264 140 L503 440 C505 445 506 449 506 454 L506 541 C506 556 492 568 479 568 L96 568 C83 568 70 556 70 541 L70 454 C70 437 83 428 96 428 L314 428 L81 135 C74 129 70 122 70 113 L70 26 Z M310 799 C293 799 282 785 277 772 L233 658 C233 645 241 632 258 632 L339 632 C354 632 372 646 377 658 L421 772 C421 787 410 799 395 799 L310 799 Z " />
<glyph glyph-name="Zdotaccent" unicode="&#x17b;" horiz-adv-x="576" d="M70 26 C70 9 83 0 96 0 L479 0 C492 0 506 9 506 26 L506 113 C506 128 492 140 479 140 L264 140 L503 440 C505 445 506 449 506 454 L506 541 C506 556 492 568 479 568 L96 568 C83 568 70 556 70 541 L70 454 C70 437 83 428 96 428 L314 428 L81 135 C74 129 70 122 70 113 L70 26 Z M215 706 C215 665 248 632 289 632 C330 632 363 665 363 706 C363 747 330 780 289 780 C248 780 215 747 215 706 L215 706 Z " />
<glyph glyph-name="zdotaccent" unicode="&#x17c;" horiz-adv-x="576" d="M70 26 C70 9 83 0 96 0 L479 0 C492 0 506 9 506 26 L506 113 C506 128 492 140 479 140 L264 140 L503 440 C505 445 506 449 506 454 L506 541 C506 556 492 568 479 568 L96 568 C83 568 70 556 70 541 L70 454 C70 437 83 428 96 428 L314 428 L81 135 C74 129 70 122 70 113 L70 26 Z M305 898 C232 898 172 838 172 765 C172 692 232 632 305 632 C378 632 438 692 438 765 C438 838 378 898 305 898 L305 898 Z M305 729 C286 729 269 746 269 765 C269 784 286 801 305 801 C324 801 341 784 341 765 C341 746 324 729 305 729 L305 729 Z " />
<glyph glyph-name="Zcaron" unicode="&#x17d;" horiz-adv-x="576" d="M70 26 C70 9 83 0 96 0 L479 0 C492 0 506 9 506 26 L506 113 C506 128 492 140 479 140 L264 140 L503 440 C505 445 506 449 506 454 L506 541 C506 556 492 568 479 568 L96 568 C83 568 70 556 70 541 L70 454 C70 437 83 428 96 428 L314 428 L81 135 C74 129 70 122 70 113 L70 26 Z M341 632 C358 632 373 646 378 659 L454 810 C454 823 446 836 429 836 L358 836 C343 836 327 822 322 810 L291 743 L260 810 C255 822 239 836 224 836 L153 836 C136 836 128 823 128 810 L204 659 C209 646 224 632 241 632 L341 632 Z " />
<glyph glyph-name="zcaron" unicode="&#x17e;" horiz-adv-x="576" d="M70 26 C70 9 83 0 96 0 L479 0 C492 0 506 9 506 26 L506 113 C506 128 492 140 479 140 L264 140 L503 440 C505 445 506 449 506 454 L506 541 C506 556 492 568 479 568 L96 568 C83 568 70 556 70 541 L70 454 C70 437 83 428 96 428 L314 428 L81 135 C74 129 70 122 70 113 L70 26 Z M341 632 C358 632 373 646 378 659 L454 810 C454 823 446 836 429 836 L358 836 C343 836 327 822 322 810 L291 743 L260 810 C255 822 239 836 224 836 L153 836 C136 836 128 823 128 810 L204 659 C209 646 224 632 241 632 L341 632 Z " />
<glyph glyph-name="florin" unicode="&#x192;" horiz-adv-x="535" d="M398 186 C410 186 423 195 423 210 L423 289 C423 302 410 314 398 314 L226 314 L226 321 C226 420 239 451 295 451 C326 451 334 442 353 422 C364 410 364 404 388 404 L459 404 C474 404 485 415 485 430 C485 546 375 578 295 578 C125 578 79 491 79 321 L79 -81 C79 -180 73 -211 17 -211 C-14 -211 -29 -202 -48 -182 C-59 -170 -59 -164 -83 -164 L-154 -164 C-169 -164 -180 -175 -180 -190 C-180 -306 -65 -338 15 -338 C186 -338 226 -252 226 -81 L226 186 L398 186 Z " />
<glyph glyph-name="uni0218" unicode="&#x218;" horiz-adv-x="573" d="M376 156 C376 120 332 117 295 117 C260 117 220 127 209 163 C205 178 196 190 179 190 L88 190 C73 190 62 179 62 164 C62 48 162 -10 295 -10 C425 -10 523 46 523 163 C523 346 207 341 207 412 C207 435 228 451 271 451 C316 451 351 446 362 410 C366 395 375 383 392 383 L483 383 C498 383 509 394 509 409 C509 525 404 578 271 578 C140 578 60 514 60 410 C60 213 376 237 376 156 L376 156 Z M236 -133 C236 -158 246 -178 266 -195 L252 -242 C251 -246 250 -249 250 -251 C250 -259 253 -265 260 -270 L298 -282 C302 -284 306 -285 309 -285 C317 -285 323 -282 326 -275 C348 -237 394 -173 394 -133 C393 -89 358 -54 315 -54 C271 -54 236 -89 236 -133 L236 -133 Z " />
<glyph glyph-name="uni0219" unicode="&#x219;" horiz-adv-x="573" d="M376 156 C376 120 332 117 295 117 C260 117 220 127 209 163 C205 178 196 190 179 190 L88 190 C73 190 62 179 62 164 C62 48 162 -10 295 -10 C425 -10 523 46 523 163 C523 346 207 341 207 412 C207 435 228 451 271 451 C316 451 351 446 362 410 C366 395 375 383 392 383 L483 383 C498 383 509 394 509 409 C509 525 404 578 271 578 C140 578 60 514 60 410 C60 213 376 237 376 156 L376 156 Z M236 -133 C236 -158 246 -178 266 -195 L252 -242 C251 -246 250 -249 250 -251 C250 -259 253 -265 260 -270 L298 -282 C302 -284 306 -285 309 -285 C317 -285 323 -282 326 -275 C348 -237 394 -173 394 -133 C393 -89 358 -54 315 -54 C271 -54 236 -89 236 -133 L236 -133 Z " />
<glyph glyph-name="uni021A" unicode="&#x21a;" horiz-adv-x="526" d="M71 568 C58 568 45 556 45 541 L45 454 C45 437 58 428 71 428 L189 428 L189 26 C189 13 202 0 215 0 L311 0 C328 0 336 13 336 26 L336 428 L454 428 C467 428 481 437 481 454 L481 541 C481 556 467 568 454 568 L71 568 Z M183 -133 C183 -158 193 -178 213 -195 L199 -242 C198 -246 197 -249 197 -251 C197 -259 200 -265 207 -270 L245 -282 C249 -284 253 -285 256 -285 C264 -285 270 -282 273 -275 C295 -237 341 -173 341 -133 C340 -89 305 -54 262 -54 C218 -54 183 -89 183 -133 L183 -133 Z " />
<glyph glyph-name="uni021B" unicode="&#x21b;" horiz-adv-x="526" d="M71 568 C58 568 45 556 45 541 L45 454 C45 437 58 428 71 428 L189 428 L189 26 C189 13 202 0 215 0 L311 0 C328 0 336 13 336 26 L336 428 L454 428 C467 428 481 437 481 454 L481 541 C481 556 467 568 454 568 L71 568 Z M183 -133 C183 -158 193 -178 213 -195 L199 -242 C198 -246 197 -249 197 -251 C197 -259 200 -265 207 -270 L245 -282 C249 -284 253 -285 256 -285 C264 -285 270 -282 273 -275 C295 -237 341 -173 341 -133 C340 -89 305 -54 262 -54 C218 -54 183 -89 183 -133 L183 -133 Z " />
<glyph glyph-name="circumflex" unicode="&#x2c6;" horiz-adv-x="526" d="M213 578 C196 578 181 564 176 551 L100 400 C100 387 108 374 125 374 L196 374 C211 374 227 388 232 400 L263 467 L294 400 C299 388 315 374 330 374 L401 374 C418 374 426 387 426 400 L350 551 C345 564 330 578 313 578 L213 578 Z " />
<glyph glyph-name="caron" unicode="&#x2c7;" horiz-adv-x="526" d="M313 374 C330 374 345 388 350 401 L426 552 C426 565 418 578 401 578 L330 578 C315 578 299 564 294 552 L263 485 L232 552 C227 564 211 578 196 578 L125 578 C108 578 100 565 100 552 L176 401 C181 388 196 374 213 374 L313 374 Z " />
<glyph glyph-name="breve" unicode="&#x2d8;" horiz-adv-x="526" d="M262 399 C395 399 426 470 426 553 L426 558 C426 569 418 578 407 578 L336 578 C323 578 317 569 317 558 L317 553 C317 516 313 490 263 490 C213 490 209 516 209 553 L209 558 C209 569 203 578 190 578 L119 578 C108 578 100 569 100 558 L100 553 C100 470 131 399 262 399 L262 399 Z " />
<glyph glyph-name="dotaccent" unicode="&#x2d9;" horiz-adv-x="358" d="M100 499 C100 455 135 420 179 420 C223 420 258 455 258 499 C258 543 223 578 179 578 C135 578 100 543 100 499 L100 499 Z " />
<glyph glyph-name="ring" unicode="&#x2da;" horiz-adv-x="466" d="M233 578 C160 578 100 518 100 445 C100 372 160 312 233 312 C306 312 366 372 366 445 C366 518 306 578 233 578 L233 578 Z M233 409 C214 409 197 426 197 445 C197 464 214 481 233 481 C252 481 269 464 269 445 C269 426 252 409 233 409 L233 409 Z " />
<glyph glyph-name="ogonek" unicode="&#x2db;" horiz-adv-x="363" d="M116 -19 C108 -32 100 -69 100 -90 C100 -144 143 -161 186 -161 C207 -161 237 -155 260 -132 C261 -129 263 -128 263 -125 C263 -124 263 -123 262 -122 L242 -78 C239 -77 238 -76 237 -76 C233 -76 233 -77 230 -78 C217 -89 203 -90 191 -90 C172 -90 169 -82 169 -61 C169 -54 178 -28 185 -19 C185 -10 180 -1 168 -1 L139 -1 C128 -1 120 -10 116 -19 L116 -19 Z " />
<glyph glyph-name="tilde" unicode="&#x2dc;" horiz-adv-x="559" d="M459 470 L429 550 C424 555 417 562 406 562 C403 562 402 562 395 558 C376 545 362 539 339 539 C299 539 266 578 212 578 C173 578 142 560 111 536 C104 531 100 524 100 516 C100 512 101 508 102 503 L130 431 C135 423 142 419 151 419 C155 419 157 418 164 421 C180 434 192 438 212 438 C258 438 292 399 337 399 C378 399 416 418 447 445 C454 448 459 459 459 470 L459 470 Z " />
<glyph glyph-name="hungarumlaut" unicode="&#x2dd;" horiz-adv-x="551" d="M177 578 C160 578 149 564 144 551 L100 437 C100 424 108 411 125 411 L192 411 C207 411 225 425 230 437 L274 551 C274 566 263 578 248 578 L177 578 Z M354 578 C337 578 326 564 321 551 L277 437 C277 424 285 411 302 411 L369 411 C384 411 402 425 407 437 L451 551 C451 566 440 578 425 578 L354 578 Z " />
<glyph glyph-name="uni03A9" unicode="&#x3a9;" horiz-adv-x="912" d="M456 451 C543 451 576 392 576 305 L576 26 C576 13 587 0 602 0 L785 0 C798 0 812 9 812 26 L812 113 C812 128 798 140 785 140 L723 140 L723 305 C723 476 627 578 456 578 C285 578 189 476 189 305 L189 140 L127 140 C114 140 100 128 100 113 L100 26 C100 9 114 0 127 0 L310 0 C325 0 336 13 336 26 L336 305 C336 392 369 451 456 451 L456 451 Z " />
<glyph glyph-name="pi" unicode="&#x3c0;" horiz-adv-x="788" d="M716 568 L71 568 C58 568 45 556 45 541 L45 454 C45 437 58 428 71 428 L189 428 L189 26 C189 13 202 0 215 0 L311 0 C328 0 336 13 336 26 L336 428 L451 428 L451 26 C451 13 464 0 477 0 L573 0 C590 0 598 13 598 26 L598 428 L716 428 C729 428 743 437 743 454 L743 541 C743 556 729 568 716 568 L716 568 Z " />
<glyph glyph-name="ZWSP" unicode="&#x200b;" d="" />
<glyph glyph-name="endash" unicode="&#x2013;" horiz-adv-x="530" d="M403 190 C416 190 430 199 430 216 L430 303 C430 318 416 330 403 330 L126 330 C113 330 100 318 100 303 L100 216 C100 199 113 190 126 190 L403 190 Z " />
<glyph glyph-name="emdash" unicode="&#x2014;" horiz-adv-x="669" d="M542 190 C555 190 569 199 569 216 L569 303 C569 318 555 330 542 330 L126 330 C113 330 100 318 100 303 L100 216 C100 199 113 190 126 190 L542 190 Z " />
<glyph glyph-name="quoteleft" unicode="&#x2018;" horiz-adv-x="358" d="M258 400 C258 425 248 445 228 462 L253 535 C254 539 255 542 255 544 C255 552 252 558 245 563 L207 575 C203 577 199 578 196 578 C188 578 182 575 179 568 C107 445 100 432 100 400 C101 356 136 321 179 321 C223 321 258 356 258 400 L258 400 Z " />
<glyph glyph-name="quoteright" unicode="&#x2019;" horiz-adv-x="358" d="M100 499 C100 474 110 454 130 437 L105 364 C104 360 103 357 103 355 C103 347 106 341 113 336 L151 324 C155 322 159 321 162 321 C170 321 176 324 179 331 C251 454 258 467 258 499 C257 543 222 578 179 578 C135 578 100 543 100 499 L100 499 Z " />
<glyph glyph-name="quotesinglbase" unicode="&#x201a;" horiz-adv-x="358" d="M100 -78 C100 -103 110 -123 130 -140 L105 -213 C104 -217 103 -220 103 -222 C103 -230 106 -236 113 -241 L151 -253 C155 -255 159 -256 162 -256 C170 -256 176 -253 179 -246 C251 -123 258 -110 258 -78 C257 -34 222 1 179 1 C135 1 100 -34 100 -78 L100 -78 Z " />
<glyph glyph-name="quotedblleft" unicode="&#x201c;" horiz-adv-x="562" d="M258 400 C258 425 248 445 228 462 L253 535 C254 539 255 542 255 544 C255 552 252 558 245 563 L207 575 C203 577 199 578 196 578 C188 578 182 575 179 568 C107 445 100 432 100 400 C101 356 136 321 179 321 C223 321 258 356 258 400 L258 400 Z M462 400 C462 425 452 445 432 462 L457 535 C458 539 459 542 459 544 C459 552 456 558 449 563 L411 575 C407 577 403 578 400 578 C392 578 386 575 383 568 C311 445 304 432 304 400 C305 356 340 321 383 321 C427 321 462 356 462 400 L462 400 Z " />
<glyph glyph-name="quotedblright" unicode="&#x201d;" horiz-adv-x="562" d="M304 499 C304 474 314 454 334 437 L309 364 C308 360 307 357 307 355 C307 347 310 341 317 336 L355 324 C359 322 363 321 366 321 C374 321 380 324 383 331 C455 454 462 467 462 499 C461 543 426 578 383 578 C339 578 304 543 304 499 L304 499 Z M100 499 C100 474 110 454 130 437 L105 364 C104 360 103 357 103 355 C103 347 106 341 113 336 L151 324 C155 322 159 321 162 321 C170 321 176 324 179 331 C251 454 258 467 258 499 C257 543 222 578 179 578 C135 578 100 543 100 499 L100 499 Z " />
<glyph glyph-name="quotedblbase" unicode="&#x201e;" horiz-adv-x="562" d="M304 -79 C304 -104 314 -124 334 -141 L309 -214 C308 -218 307 -221 307 -223 C307 -231 310 -237 317 -242 L355 -254 C359 -256 363 -257 366 -257 C374 -257 380 -254 383 -247 C455 -124 462 -111 462 -79 C461 -35 426 0 383 0 C339 0 304 -35 304 -79 L304 -79 Z M100 -79 C100 -104 110 -124 130 -141 L105 -214 C104 -218 103 -221 103 -223 C103 -231 106 -237 113 -242 L151 -254 C155 -256 159 -257 162 -257 C170 -257 176 -254 179 -247 C251 -124 258 -111 258 -79 C257 -35 222 0 179 0 C135 0 100 -35 100 -79 L100 -79 Z " />
<glyph glyph-name="dagger" unicode="&#x2020;" horiz-adv-x="526" d="M310 703 L214 703 C199 703 188 691 188 676 L188 568 L71 568 C58 568 45 556 45 541 L45 454 C45 437 58 428 71 428 L188 428 L188 26 C188 13 201 0 214 0 L309 0 C326 0 334 13 334 26 L334 428 L454 428 C467 428 481 437 481 454 L481 541 C481 556 467 568 454 568 L335 568 L335 676 C335 691 327 703 310 703 L310 703 Z " />
<glyph glyph-name="daggerdbl" unicode="&#x2021;" horiz-adv-x="526" d="M71 140 C58 140 45 128 45 113 L45 26 C45 9 58 0 71 0 L188 0 L188 -170 C188 -183 201 -196 214 -196 L309 -196 C326 -196 334 -183 334 -170 L334 0 L454 0 C467 0 481 9 481 26 L481 113 C481 128 467 140 454 140 L334 140 L334 428 L454 428 C467 428 481 437 481 454 L481 541 C481 556 467 568 454 568 L335 568 L335 676 C335 691 327 703 310 703 L214 703 C199 703 188 691 188 676 L188 568 L71 568 C58 568 45 556 45 541 L45 454 C45 437 58 428 71 428 L188 428 L188 140 L71 140 Z " />
<glyph glyph-name="bullet" unicode="&#x2022;" horiz-adv-x="358" d="M100 238 C100 194 135 159 179 159 C223 159 258 194 258 238 C258 282 223 317 179 317 C135 317 100 282 100 238 L100 238 Z " />
<glyph glyph-name="ellipsis" unicode="&#x2026;" horiz-adv-x="1079" d="M100 69 C100 25 135 -10 179 -10 C223 -10 258 25 258 69 C258 113 223 148 179 148 C135 148 100 113 100 69 L100 69 Z M460 69 C460 25 495 -10 539 -10 C583 -10 618 25 618 69 C618 113 583 148 539 148 C495 148 460 113 460 69 L460 69 Z M821 69 C821 25 856 -10 900 -10 C944 -10 979 25 979 69 C979 113 944 148 900 148 C856 148 821 113 821 69 L821 69 Z " />
<glyph glyph-name="perthousand" unicode="&#x2030;" horiz-adv-x="1143" d="M253 29 C253 10 264 0 276 0 L369 0 C386 0 400 12 405 25 L594 539 C594 558 583 568 571 568 L478 568 C461 568 447 556 442 543 L253 29 Z M197 578 C124 578 70 518 70 445 C70 372 124 312 197 312 C270 312 323 372 323 445 C323 518 270 578 197 578 L197 578 Z M197 409 C178 409 167 426 167 445 C167 464 178 481 197 481 C216 481 226 464 226 445 C226 426 216 409 197 409 L197 409 Z M646 256 C573 256 520 196 520 123 C520 50 573 -10 646 -10 C719 -10 773 50 773 123 C773 196 719 256 646 256 L646 256 Z M646 87 C627 87 617 104 617 123 C617 142 627 159 646 159 C665 159 676 142 676 123 C676 104 665 87 646 87 L646 87 Z M946 256 C873 256 820 196 820 123 C820 50 873 -10 946 -10 C1019 -10 1073 50 1073 123 C1073 196 1019 256 946 256 L946 256 Z M946 87 C927 87 917 104 917 123 C917 142 927 159 946 159 C965 159 976 142 976 123 C976 104 965 87 946 87 L946 87 Z " />
<glyph glyph-name="guilsinglleft" unicode="&#x2039;" horiz-adv-x="533" d="M266 25 C274 13 285 0 302 0 L410 0 C422 0 433 10 433 29 L267 277 L433 526 C433 545 422 555 410 555 L302 555 C285 555 271 543 266 530 L100 282 L100 273 L266 25 Z " />
<glyph glyph-name="guilsinglright" unicode="&#x203a;" horiz-adv-x="533" d="M433 273 L433 282 L267 530 C262 543 248 555 231 555 L123 555 C111 555 100 545 100 526 L266 277 L100 29 C100 10 111 0 123 0 L231 0 C248 0 259 13 267 25 L433 273 Z " />
<glyph glyph-name="fraction" unicode="&#x2044;" horiz-adv-x="781" d="M150 -168 C150 -187 161 -197 173 -197 L266 -197 C283 -197 297 -185 302 -172 L631 725 C631 744 620 754 608 754 L515 754 C498 754 484 742 479 729 L150 -168 Z " />
<glyph glyph-name="Euro" unicode="&#x20ac;" horiz-adv-x="752" d="M371 164 C380 164 390 171 390 184 L390 250 C390 261 380 270 371 270 L295 270 L295 280 C295 288 295 297 296 305 L371 305 C380 305 390 312 390 325 L390 391 C390 402 380 411 371 411 L331 411 C350 435 376 451 415 451 C462 451 505 431 536 380 C541 371 550 367 561 367 C566 367 570 368 574 370 L639 403 C648 408 652 416 652 427 C652 432 651 436 649 440 C608 525 528 578 415 578 C291 578 209 511 170 411 L120 411 C109 411 100 402 100 391 L100 325 C100 312 109 305 120 305 L148 305 L148 280 L148 270 L120 270 C109 270 100 261 100 250 L100 184 C100 171 109 164 120 164 L165 164 C200 57 286 -10 415 -10 C528 -10 608 43 649 128 C651 132 652 136 652 141 C652 152 648 160 639 165 L574 198 C570 200 566 201 561 201 C550 201 541 197 536 188 C505 137 462 117 415 117 C372 117 343 135 324 164 L371 164 Z " />
<glyph glyph-name="Numero" unicode="&#x2116;" horiz-adv-x="1165" d="M440 568 C423 568 414 556 414 541 L414 285 C330 420 288 486 266 521 C253 541 246 552 243 555 C239 564 226 568 218 568 L126 568 C113 568 100 556 100 541 L100 26 C100 13 113 0 126 0 L222 0 C239 0 247 13 247 26 L247 286 L420 13 C427 2 437 0 445 0 L535 0 C548 0 561 13 561 26 L561 541 C561 556 548 568 535 568 L440 568 Z M647 370 C647 266 685 174 856 174 C1026 174 1065 266 1065 370 C1065 474 1026 566 856 566 C685 566 647 474 647 370 L647 370 Z M794 370 C794 407 805 439 856 439 C907 439 918 407 918 370 C918 333 907 301 856 301 C805 301 794 333 794 370 L794 370 Z M1041 0 C1052 0 1065 8 1065 24 L1065 103 C1065 115 1052 127 1041 127 L671 127 C659 127 647 115 647 103 L647 24 C647 8 659 0 671 0 L1041 0 Z " />
<glyph glyph-name="trademark" unicode="&#x2122;" horiz-adv-x="914" d="M163 568 C156 568 150 561 150 554 L150 488 C150 479 156 475 163 475 L225 475 L225 287 C225 280 231 274 238 274 L317 274 C326 274 331 280 331 287 L331 475 L392 475 C399 475 406 479 406 488 L406 554 C406 561 399 568 392 568 L163 568 Z M621 343 C626 343 630 345 632 349 L658 386 L658 287 C658 280 662 274 671 274 L751 274 C758 274 764 280 764 287 L764 554 C764 561 758 568 751 568 L703 568 C699 568 693 566 690 561 L617 454 L544 561 C541 566 535 568 531 568 L483 568 C476 568 470 561 470 554 L470 287 C470 280 476 274 483 274 L563 274 C572 274 576 280 576 287 L576 386 L602 349 C604 345 608 343 613 343 L621 343 Z " />
<glyph glyph-name="Omega" unicode="&#x2126;" horiz-adv-x="912" d="M456 451 C543 451 576 392 576 305 L576 26 C576 13 587 0 602 0 L785 0 C798 0 812 9 812 26 L812 113 C812 128 798 140 785 140 L723 140 L723 305 C723 476 627 578 456 578 C285 578 189 476 189 305 L189 140 L127 140 C114 140 100 128 100 113 L100 26 C100 9 114 0 127 0 L310 0 C325 0 336 13 336 26 L336 305 C336 392 369 451 456 451 L456 451 Z " />
<glyph glyph-name="partialdiff" unicode="&#x2202;" horiz-adv-x="548" d="M269 -10 C439 -10 478 66 478 170 L478 382 C478 486 439 578 269 578 C138 578 90 515 74 443 C74 428 85 416 100 416 L196 416 C205 416 212 420 217 427 C226 440 242 451 269 451 C320 451 331 419 331 382 L331 334 C314 354 264 362 241 362 C105 362 60 274 60 170 C60 66 98 -10 269 -10 L269 -10 Z M269 230 C320 230 331 199 331 170 C331 143 320 117 269 117 C218 117 207 142 207 170 C207 199 218 230 269 230 L269 230 Z " />
<glyph glyph-name="Delta" unicode="&#x2206;" horiz-adv-x="750" d="M458 543 C453 556 439 568 422 568 L329 568 C310 568 297 556 292 543 L100 19 C100 0 111 -10 123 -10 L627 -10 C639 -10 650 0 650 19 L458 543 Z M375 351 L456 130 L294 130 L375 351 Z " />
<glyph glyph-name="product" unicode="&#x220f;" horiz-adv-x="788" d="M716 568 L71 568 C58 568 45 556 45 541 L45 454 C45 437 58 428 71 428 L189 428 L189 -170 C189 -183 202 -196 215 -196 L311 -196 C328 -196 336 -183 336 -170 L336 428 L451 428 L451 -170 C451 -183 464 -196 477 -196 L573 -196 C590 -196 598 -183 598 -170 L598 428 L716 428 C729 428 743 437 743 454 L743 541 C743 556 729 568 716 568 L716 568 Z " />
<glyph glyph-name="summation" unicode="&#x2211;" horiz-adv-x="594" d="M468 0 C481 0 494 12 494 27 L494 114 C494 131 481 140 468 140 L260 140 L318 279 L318 289 L260 428 L468 428 C481 428 494 437 494 454 L494 541 C494 556 481 568 468 568 L127 568 C114 568 100 556 100 541 L100 431 L158 289 L158 279 L100 137 L100 27 C100 12 114 0 127 0 L468 0 Z " />
<glyph glyph-name="minus" unicode="&#x2212;" horiz-adv-x="530" d="M403 190 C416 190 430 199 430 216 L430 303 C430 318 416 330 403 330 L126 330 C113 330 100 318 100 303 L100 216 C100 199 113 190 126 190 L403 190 Z " />
<glyph glyph-name="radical" unicode="&#x221a;" horiz-adv-x="773" d="M646 428 C659 428 673 437 673 454 L673 541 C673 556 659 568 646 568 L416 568 C397 568 387 554 384 542 L277 163 L244 276 C241 288 231 302 212 302 L123 302 C108 302 100 289 100 276 L173 42 C176 29 192 0 230 0 L325 0 C365 0 377 29 382 42 L494 428 L646 428 Z " />
<glyph glyph-name="infinity" unicode="&#x221e;" horiz-adv-x="910" d="M227 248 C227 299 268 310 300 310 C337 310 373 299 373 248 C373 197 337 186 300 186 C268 186 227 197 227 248 L227 248 Z M455 122 C482 58 562 39 610 39 C714 39 810 77 810 248 C810 418 714 457 610 457 C562 457 482 438 455 374 C428 438 348 457 300 457 C196 457 100 418 100 248 C100 77 196 39 300 39 C348 39 428 58 455 122 L455 122 Z M683 248 C683 197 642 186 610 186 C573 186 537 197 537 248 C537 299 573 310 610 310 C642 310 683 299 683 248 L683 248 Z " />
<glyph glyph-name="integral" unicode="&#x222b;" horiz-adv-x="807" d="M477 288 C477 376 483 451 563 451 C608 451 629 428 640 392 C644 377 653 365 670 365 L761 365 C776 365 787 376 787 391 C787 507 695 578 563 578 C392 578 330 458 330 288 L330 94 C330 6 324 -69 244 -69 C199 -69 178 -46 167 -10 C163 5 154 17 137 17 L46 17 C31 17 20 6 20 -9 C20 -125 112 -196 244 -196 C414 -196 477 -76 477 94 L477 288 Z " />
<glyph glyph-name="approxequal" unicode="&#x2248;" horiz-adv-x="559" d="M429 172 C424 177 417 184 406 184 C403 184 402 184 395 180 C376 167 362 161 339 161 C299 161 266 200 212 200 C173 200 142 182 111 158 C104 153 100 146 100 138 C100 134 101 130 102 125 L130 53 C135 45 142 41 151 41 C155 41 157 40 164 43 C180 56 192 60 212 60 C258 60 292 21 337 21 C378 21 416 40 447 67 C454 70 459 81 459 92 L429 172 Z M429 347 C424 352 417 359 406 359 C403 359 402 359 395 355 C376 342 362 336 339 336 C299 336 266 375 212 375 C173 375 142 357 111 333 C104 328 100 321 100 313 C100 309 101 305 102 300 L130 228 C135 220 142 216 151 216 C155 216 157 215 164 218 C180 231 192 235 212 235 C258 235 292 196 337 196 C378 196 416 215 447 242 C454 245 459 256 459 267 L429 347 Z " />
<glyph glyph-name="notequal" unicode="&#x2260;" horiz-adv-x="530" d="M127 23 C127 8 136 0 145 0 L217 0 C230 0 241 8 245 19 L266 76 L403 76 C416 76 430 85 430 102 L430 189 C430 204 416 216 403 216 L317 216 L336 266 L403 266 C416 266 430 275 430 292 L430 379 C430 394 416 406 403 406 L387 406 L399 439 C399 454 390 462 381 462 L309 462 C294 462 284 453 281 442 L268 406 L126 406 C113 406 100 394 100 379 L100 292 C100 275 113 266 126 266 L216 266 L198 216 L126 216 C113 216 100 204 100 189 L100 102 C100 85 113 76 126 76 L146 76 L127 23 Z " />
<glyph glyph-name="lessequal" unicode="&#x2264;" horiz-adv-x="456" d="M100 362 L189 231 C197 219 208 206 225 206 L333 206 C345 206 356 216 356 235 L267 366 L356 497 C356 516 345 526 333 526 L225 526 C208 526 197 513 189 501 L100 370 L100 362 Z M329 0 C342 0 356 9 356 26 L356 113 C356 128 342 140 329 140 L128 140 C115 140 102 128 102 113 L102 26 C102 9 115 0 128 0 L329 0 Z " />
<glyph glyph-name="greaterequal" unicode="&#x2265;" horiz-adv-x="456" d="M356 370 L267 501 C259 513 248 526 231 526 L123 526 C111 526 100 516 100 497 L189 366 L100 235 C100 216 111 206 123 206 L231 206 C248 206 259 219 267 231 L356 362 L356 370 Z M328 0 C341 0 354 9 354 26 L354 113 C354 128 341 140 328 140 L127 140 C114 140 100 128 100 113 L100 26 C100 9 114 0 127 0 L328 0 Z " />
<glyph glyph-name="lozenge" unicode="&#x25ca;" horiz-adv-x="561" d="M243 285 L280 360 L317 285 L280 207 L243 285 Z M461 285 L363 543 C358 556 345 568 326 568 L234 568 C215 568 202 556 197 543 L100 285 L197 25 C202 12 215 0 234 0 L326 0 C345 0 358 12 363 25 L461 285 Z " />
<glyph glyph-name="uni25CC" unicode="&#x25cc;" horiz-adv-x="512" d="" />
<glyph glyph-name="fi" unicode="&#xfb01;" horiz-adv-x="895" d="M247 187 L432 187 C445 187 459 196 459 213 L459 291 C459 306 445 318 432 318 L247 318 L247 428 L490 428 C503 428 517 440 517 455 L517 542 C517 559 503 568 490 568 L126 568 C111 568 100 555 100 542 L100 26 C100 13 111 0 126 0 L221 0 C236 0 247 13 247 26 L247 187 Z M674 568 C659 568 648 556 648 541 L648 26 C648 13 659 0 674 0 L770 0 C787 0 795 13 795 26 L795 541 C795 556 787 568 770 568 L674 568 Z " />
<glyph glyph-name="fl" unicode="&#xfb02;" horiz-adv-x="1082" d="M247 187 L432 187 C445 187 459 196 459 213 L459 291 C459 306 445 318 432 318 L247 318 L247 428 L490 428 C503 428 517 440 517 455 L517 542 C517 559 503 568 490 568 L126 568 C111 568 100 555 100 542 L100 26 C100 13 111 0 126 0 L221 0 C236 0 247 13 247 26 L247 187 Z M1004 0 C1017 0 1031 9 1031 26 L1031 113 C1031 128 1017 140 1004 140 L795 140 L795 541 C795 556 787 568 770 568 L674 568 C659 568 648 556 648 541 L648 26 C648 13 659 0 674 0 L1004 0 Z " />
</font>
</svg>
